<?xml version="1.0" standalone="no"?>
<!DOCTYPE svg PUBLIC "-//W3C//DTD SVG 1.1//EN" "http://www.w3.org/Graphics/SVG/1.1/DTD/svg11.dtd" >
<!--
2013-9-30: Created.
-->
<svg>
<metadata>
Created by iconfont
</metadata>
<defs>

<font id="sc" horiz-adv-x="1024" >
  <font-face
    font-family="sc"
    font-weight="500"
    font-stretch="normal"
    units-per-em="1024"
    ascent="896"
    descent="-128"
  />
    <missing-glyph />
    
    <glyph glyph-name="x" unicode="x" horiz-adv-x="1001"
d="M281 543q-27 -1 -53 -1h-83q-18 0 -36.5 -6t-32.5 -18.5t-23 -32t-9 -45.5v-76h912v41q0 16 -0.5 30t-0.5 18q0 13 -5 29t-17 29.5t-31.5 22.5t-49.5 9h-133v-97h-438v97zM955 310v-52q0 -23 0.5 -52t0.5 -58t-10.5 -47.5t-26 -30t-33 -16t-31.5 -4.5q-14 -1 -29.5 -0.5
t-29.5 0.5h-32l-45 128h-439l-44 -128h-29h-34q-20 0 -45 1q-25 0 -41 9.5t-25.5 23t-13.5 29.5t-4 30v167h911zM163 247q-12 0 -21 -8.5t-9 -21.5t9 -21.5t21 -8.5q13 0 22 8.5t9 21.5t-9 21.5t-22 8.5zM316 123q-8 -26 -14 -48q-5 -19 -10.5 -37t-7.5 -25t-3 -15t1 -14.5
t9.5 -10.5t21.5 -4h37h67h81h80h64h36q23 0 34 12t2 38q-5 13 -9.5 30.5t-9.5 34.5q-5 19 -11 39h-368zM336 498v228q0 11 2.5 23t10 21.5t20.5 15.5t34 6h188q31 0 51.5 -14.5t20.5 -52.5v-227h-327z" />
    

    
    <glyph glyph-name="liuliang" unicode="&#58882;" d="M879.674 351.49l-158.254 0.221c-8.534-2.287-17.305 2.776-19.588 11.307l-23.862 75.877-74.742-350.891c0 0-1.523-18.507-11.518-18.507s-26.9-0.281-26.9-0.281c-8.259-2.213-16.748 2.687-18.961 10.949l-92.741 457.648-70.305-330.634c-2.261-8.291-11.94-15.206-20.385-12.986l-24.876-0.339c-8.723-2.293-17.685 2.789-20.023 11.349L270.629 351.49 143.993 351.49c-8.831 0-15.993 7.159-15.993 15.993l0 31.986c0 8.831 7.162 15.993 15.993 15.993l157.429 0.516c9.565 0.304 17.685-0.788 20.023-9.351l24.386-76.092 68.642 358.907c0 0 3.4 10.894 14.397 10.894 10.994 0 34.107 0.448 34.107 0.448 8.262 2.213 16.751-2.687 18.965-10.949l91.912-454.126 67.948 326.182c2.213 8.262 8.707 15.161 16.965 12.948l27.316 0.333c8.531 2.287 17.301-2.776 19.588-11.31l46.665-148.4 127.337 0c8.835 0 15.993-7.162 15.993-15.993l0-31.986C895.667 358.648 888.508 351.49 879.674 351.49z"  horiz-adv-x="1024" />

    
    <glyph glyph-name="iconfontditie" unicode="&#58991;" d="M851.8 584.8C851.8 684.9 766.3 766 660.8 766L355.1 766c-105.5 0-191-81.1-191-181.2l0-326.1c0-74.4 47.4-138.8 114.9-167L176.2-95.5 303-95.5l19.7 43 371.5 0 19.6-43 126.8 0-103 187.6c67.1 28.4 114.1 92.4 114.1 166.5L851.8 584.8zM284.6 377.3c0 61.7 50 111.7 111.7 111.7l223.3 0c61.6 0 111.7-50 111.7-111.7l0-111.7L284.6 265.6 284.6 377.3zM601 526.1 414.9 526.1c-10.3 0-18.6 8.3-18.6 18.6s8.3 18.6 18.6 18.6L601 563.3c10.3 0 18.6-8.3 18.6-18.6S611.3 526.1 601 526.1zM335.8 181.3l31.3-9.1c25.9-7.5 46.9-34.3 46.9-59.7 0-25.5-21-40-46.9-32.5l-31.3 9.1c-25.9 7.5-46.9 34.2-46.9 59.7C288.9 174.3 309.9 188.9 335.8 181.3zM618.2 5.1l34-74.5L364.5-69.4l34.1 74.5L618.2 5.1zM648.7 80c-25.9-7.5-46.9 7-46.9 32.5 0 25.5 21 52.2 46.9 59.7l31.3 9.1c25.9 7.5 46.9-7 46.9-32.5 0-25.5-21-52.2-46.9-59.7L648.7 80z"  horiz-adv-x="1024" />

    
    <glyph glyph-name="fengsu3" unicode="&#58933;" d="M496.003678 363.98529l31.992645 0L527.996322 747.896007l-31.992645 0c-106.013499 0-191.954847-85.941348-191.954847-191.954847S389.989155 363.98529 496.003678 363.98529zM496.003678 715.903362l0-319.925427c-88.345094 0-159.963225 71.618131-159.963225 159.962202S407.658583 715.903362 496.003678 715.903362zM587.120908 361.842487c-44.172035 76.509535-17.959024 174.340677 58.550511 218.512712s174.340677 17.959024 218.512712-58.550511L559.413869 345.846164l15.996322-27.706015 332.476277 191.954847-15.996322 27.706015c-53.007261 91.811032-170.405041 123.267465-262.216074 70.260204s-123.267465-170.405041-70.260204-262.216074L587.120908 361.842487zM837.626265 352.121078c-91.811032 53.007261-209.208812 21.549805-262.216074-70.260204l-15.996322-27.706015 332.476277-191.954847 15.996322 27.706015L603.117231 265.864552c44.172035 76.508511 142.004201 102.722546 218.512712 58.550511s102.722546-142.004201 58.550511-218.512712l27.706015-15.996322C960.89373 181.716037 929.437298 299.113817 837.626265 352.121078zM527.996322 236.01471l-31.992645 0 0-383.910717 31.992645 0c106.013499 0 191.954847 85.941348 191.954847 191.954847S634.009821 236.01471 527.996322 236.01471zM527.996322-115.903362 527.996322 204.022065c88.345094 0 159.963225-71.618131 159.963225-159.963225S616.341417-115.903362 527.996322-115.903362zM448.588785 281.860874 116.112508 89.905004l15.996322-27.706015 304.770262 175.959547c44.172035-76.509535 17.958-174.340677-58.550511-218.513736-76.509535-44.172035-174.340677-17.958-218.512712 58.550511l-27.706015-15.996322c53.007261-91.811032 170.405041-123.267465 262.216074-70.260204s123.267465 170.405041 70.260204 262.216074L448.588785 281.860874zM186.372711 247.878922c91.811032-53.007261 209.208812-21.549805 262.216074 70.260204l-27.706015 15.996322c-44.172035-76.508511-142.004201-102.722546-218.512712-58.550511s-102.722546 142.004201-58.550511 218.512712l-27.706015 15.996322C63.105247 418.283963 94.562702 300.886183 186.372711 247.878922zM143.818523 494.098673 448.588785 318.139126 464.585107 345.846164 132.10883 537.801011 116.112508 510.094996 143.818523 494.098673Z"  horiz-adv-x="1024" />

    
    <glyph glyph-name="calendar" unicode="&#59210;" d="M256.8 318.944l512.512 0c17.696 0 32 14.304 32 32s-14.304 32-32 32L256.8 382.944c-17.696 0-32-14.304-32-32S239.136 318.944 256.8 318.944zM256.8 126.944l512.512 0c17.696 0 32 14.304 32 32s-14.304 32-32 32L256.8 190.944c-17.696 0-32-14.304-32-32S239.136 126.944 256.8 126.944zM448 704l160 0c17.696 0 32 14.304 32 32s-14.304 32-32 32l-160 0c-17.696 0-32-14.304-32-32S430.304 704 448 704zM847.008 768 800 768c-17.696 0-32-14.304-32-32s14.304-32 32-32l47.008 0C852.992 704 864 691.84 864 672l0-96L160 576 160 672c0 17.664 14.048 32 31.328 32L256 704c17.696 0 32 14.304 32 32S273.696 768 256 768L191.328 768C138.752 768 96 724.928 96 672l0-640c0-52.928 43.072-96 96-96l640 0c52.928 0 96 43.072 96 96L928 672C928 724.928 891.648 768 847.008 768zM864 32c0-17.664-14.368-32-32-32L192 0c-17.632 0-32 14.336-32 32L160 512l704 0L864 32zM704 672c17.696 0 32 14.304 32 32L736 800c0 17.696-14.304 32-32 32s-32-14.304-32-32l0-96C672 686.304 686.304 672 704 672zM352 672c17.696 0 32 14.304 32 32L384 800c0 17.696-14.304 32-32 32s-32-14.304-32-32l0-96C320 686.304 334.304 672 352 672z"  horiz-adv-x="1024" />

    
    <glyph glyph-name="box" unicode="&#59083;" d="M58.18714 634.486153 489.750985 389.933308C497.230148 385.695115 506.385346 385.695115 513.86451 389.933308L945.428356 634.486153C962.456593 644.135488 961.814227 668.883315 944.308329 677.636265L512.744484 893.418187C505.859648 896.860604 497.755846 896.860604 490.871012 893.418187L59.307167 677.636265C41.801269 668.883315 41.158901 644.135488 58.18714 634.486153L58.18714 634.486153ZM82.300665 677.039433 81.180638 633.889321 512.744484 849.671244 490.871012 849.671244 922.434857 633.889321 921.314829 677.039433 489.750985 432.486588 513.86451 432.486588 82.300665 677.039433 82.300665 677.039433ZM477.352463 391.070302 477.352463-78.793958C477.352463-97.514057 497.526411-109.2927 513.828779-100.090807L974.163548 159.745715C981.846246 164.082223 986.597801 172.22048 986.597801 181.042564L986.597801 497.522716C986.597801 511.028996 975.648796 521.978001 962.142515 521.978001 948.636235 521.978001 937.687232 511.028996 937.687232 497.522716L937.687232 181.042564 950.121483 202.339411 489.786716-57.497111 526.263031-78.793958 526.263031 391.070302C526.263031 404.576582 515.314029 415.525585 501.807748 415.525585 488.301468 415.525585 477.352463 404.576582 477.352463 391.070302L477.352463 391.070302ZM514.421935-57.842987 82.858091 201.993534 94.699187 181.042564 94.699187 641.377331C94.699187 654.883612 83.750183 665.832617 70.243903 665.832617 56.737622 665.832617 45.788618 654.883612 45.788618 641.377331L45.788618 181.042564C45.788618 172.465658 50.281834 164.515614 57.629714 160.091593L489.193559-99.74493C500.764461-106.711554 515.792096-102.979049 522.758718-91.408147 529.725342-79.837246 525.992838-64.809611 514.421935-57.842987L514.421935-57.842987ZM172.745454 447.781559 316.60007 361.468791C328.181609 354.519868 343.203518 358.275345 350.152444 369.856885 357.101367 381.438423 353.34589 396.460333 341.76435 403.409259L197.909735 489.722027C186.328194 496.67095 171.306285 492.915473 164.357361 481.333933 157.408437 469.752393 161.163914 454.730483 172.745454 447.781559L172.745454 447.781559Z"  horiz-adv-x="1024" />

    
    <glyph glyph-name="shenheshibai" unicode="&#58909;" d="M912.113378-17.330705C913.105362-18.610684 911.98538-17.458703 913.265359-18.482686 952.208735-58.002053 991.152111-97.521419 1030.095486-137.008786 1039.055343-146.032642 1061.774978-162.448378 1054.607093-186.287996 1053.58311-189.711941 1049.743171-197.391818 1047.599206-200.36777 1037.679365-214.287547 1010.831795-215.535527 996.20803-205.071695 951.440747-159.696422 906.641465-114.32115 861.874183-68.945877 860.562204-69.969861 861.746185-68.817879 860.690202-70.129858 856.786265-72.593819 854.514301-76.337759 851.346352-79.505708 843.95447-86.929589 836.562589-94.38547 829.170707-101.80935 805.811082-124.880981 782.419457-147.952611 759.059831-171.05624 748.564-182.000065 738.036168-192.943889 727.540337-203.919714 710.644607-215.951521 686.037002-207.823651 677.141145-194.511864 674.645185-190.767924 675.125177-187.727973 673.621201-182.768053 665.877325-156.880468 685.973003-144.720663 697.172823-133.488843 724.020393-106.097282 750.899962-78.73772 777.779531-51.346159 785.555407-43.538285 793.331282-35.69841 801.107157-27.890536 804.531102-24.46659 808.819034-22.578621 810.483007-17.330705 806.131077-14.642748 803.475119-10.290818 799.955176-6.770874 799.955176-6.770874 777.779531 15.532768 777.779531 15.532768 754.003912 39.404386 730.260293 63.244003 706.516674 87.115621 692.852893 100.843401 673.717199 112.779209 667.957292 134.058868 663.541363 150.346607 678.517123 164.458381 686.644992 168.778312 690.324933 170.73028 695.252854 169.898294 698.324805 172.298255 728.116327 172.362254 737.268181 157.130498 752.051944 142.282736 778.131526 116.45915 804.243107 90.635564 830.322689 64.811978 837.010582 58.124086 855.090292 35.660446 863.026165 33.132486 907.025459 77.739771 951.056753 122.315057 995.056048 166.922341 1011.727781 178.826151 1037.167373 171.946261 1046.447224 158.698473 1053.871105 148.106643 1053.903105 127.018981 1046.447224 116.45915 1001.679942 71.851865 956.88066 27.27658 912.113378-17.330705ZM290.011351 139.018789C290.011351 139.018789 513.97576 139.018789 513.97576 139.018789 531.671477 139.018789 545.975247 124.683019 545.975247 107.019302 545.975247 89.323585 531.671477 75.019815 513.97576 75.019815 513.97576 75.019815 290.011351 75.019815 290.011351 75.019815 272.315634 75.019815 258.011864 89.323585 258.011864 107.019302 258.011864 124.683019 272.315634 139.018789 290.011351 139.018789ZM705.972682 523.012633C705.972682 523.012633 290.011351 523.012633 290.011351 523.012633 272.315634 523.012633 258.011864 537.316404 258.011864 555.01212 258.011864 572.675837 272.315634 587.011607 290.011351 587.011607 290.011351 587.011607 705.972682 587.011607 705.972682 587.011607 723.668399 587.011607 738.004169 572.675837 738.004169 555.01212 738.004169 537.316404 723.668399 523.012633 705.972682 523.012633ZM705.972682 299.016224C705.972682 299.016224 290.011351 299.016224 290.011351 299.016224 272.315634 299.016224 258.011864 313.319994 258.011864 331.015711 258.011864 348.679428 272.315634 363.015198 290.011351 363.015198 290.011351 363.015198 705.972682 363.015198 705.972682 363.015198 723.668399 363.015198 738.004169 348.679428 738.004169 331.015711 738.004169 313.319994 723.668399 299.016224 705.972682 299.016224ZM961.968578 203.017763C944.304862 203.017763 929.969091 217.321533 929.969091 235.01725 929.969091 235.657239 930.321086 236.169231 930.353085 236.809221 930.353085 236.809221 929.681096 236.809221 929.681096 236.809221 929.681096 236.809221 929.681096 680.482108 929.681096 680.482108 929.681096 701.729768 930.353085 723.457419 921.681224 735.649224 912.049379 749.121008 889.073747 747.361036 865.77812 747.361036 865.77812 747.361036 197.340836 747.361036 197.340836 747.361036 197.340836 747.361036 131.165897 747.361036 131.165897 747.361036 131.165897 747.361036 127.293959 747.361036 127.293959 747.361036 103.998333 747.361036 82.014685 749.121008 72.38284 735.649224 63.710979 723.457419 65.374952 701.729768 65.374952 680.482108 65.374952 680.482108 65.374952 552.964153 65.374952 552.964153 65.374952 552.964153 65.374952 88.299602 65.374952 88.299602 65.374952 88.299602 65.374952-43.122291 65.374952-43.122291 65.374952-66.513916 63.64698-98.609402 77.054765-108.273247 88.254585-116.305118 102.206362-116.305118 121.470053-116.305118 121.470053-116.305118 576.37476-116.305118 576.37476-116.305118 576.37476-116.305118 576.37476-117.297102 576.37476-117.297102 576.950751-117.297102 577.430743-116.977107 578.006734-116.977107 595.670451-116.977107 610.006221-131.312878 610.006221-148.976594 610.006221-166.672311 595.670451-180.976081 578.006734-180.976081 573.206811-180.976081 568.790882-179.7921 564.694947-177.904131 564.694947-177.904131 121.278056-177.904131 121.278056-177.904131 109.406246-177.904131 95.166474-178.640119 85.054636-175.728165 52.863153-166.480314 24.31961-146.512634 11.455816-118.225087 0.479992-94.065475 2.111966-61.138003 2.111966-25.522573 2.111966-25.522573 2.111966 135.242849 2.111966 135.242849 2.111966 135.242849 2.111966 558.852058 2.111966 558.852058 2.111966 558.852058 2.111966 679.362126 2.111966 679.362126 2.111966 703.45774 0.735988 728.129345 7.967872 745.057073 17.919713 768.480698 37.823394 792.160318 60.51103 802.560151 66.686931 805.408106 74.110812 807.61607 80.382711 809.600038 84.350648 810.880018 89.21457 809.760036 92.062524 811.968001 92.062524 811.968001 131.389894 811.968001 131.389894 811.968001 131.389894 811.968001 191.580929 811.968001 191.580929 811.968001 191.580929 811.968001 901.009556 811.968001 901.009556 811.968001 903.88951 809.760036 908.721432 810.880018 912.689368 809.600038 918.961268 807.61607 926.385149 805.408106 932.56105 802.560151 955.248686 792.160318 975.152367 768.480698 985.136207 745.057073 992.336092 728.129345 991.952098 703.45774 991.952098 679.362126 991.952098 679.362126 991.952098 245.00109 991.952098 245.00109 993.04008 241.83314 993.968065 238.569193 993.968065 235.01725 993.968065 217.321533 979.664295 203.017763 961.968578 203.017763Z"  horiz-adv-x="1056" />

    
    <glyph glyph-name="slope" unicode="&#58998;" d="M597.837482 323.589254l0-87.192851 36.444027 0 0 87.192851c36.271088 8.632611 63.342654 42.447764 63.342654 82.878592 0 46.964638-36.517705 85.036745-81.564667 85.036745-45.049009 0-81.567737-38.072107-81.567737-85.036745C534.491759 366.037019 561.567417 332.221866 597.837482 323.589254zM805.95852 95.825854c-97.18339 3.471055-253.369591 124.950803-314.114071 177.013553-60.740386 52.062749-237.754962 319.317583-413.032988 305.435411l-13.882172 0.521886 0-54.320163 0-503.275291 874.655623 0C939.585937 21.202273 903.139863 92.355823 805.95852 95.825854zM833.85487 231.042465l0-108.368126 53.79623 0 0 108.368126c41.215704 13.852496 71.417563 58.70196 71.417563 111.929232 0 64.273862-44.017516 116.377544-98.311073 116.377544-54.298673 0-98.31619-52.103682-98.31619-116.377544C762.440377 289.745449 792.642237 244.897008 833.85487 231.042465z"  horiz-adv-x="1024" />

    
    <glyph glyph-name="icon2" unicode="&#58887;" d="M626.055-109.801h331.424l-276.187 811.564h-131.72l14.65-155.454h-108.72l15.464 155.454h-157.214l-250.693-811.564h327.175l28.556 287.063h180.212l27.052-287.063zM426.351 253.279l17.734 178.267h130.952l16.801-178.267h-165.487z"  horiz-adv-x="1024" />

    
    <glyph glyph-name="gnsscaidian" unicode="&#59429;" d="M201.367729 622.346433C118.623189 550.68737 66.057997 445.123103 66.057997 327.051987c0-215.812207 174.888146-390.748449 390.716726-390.748449 118.055766 0 223.61901 52.581566 295.294446 135.355781L201.367729 622.346433zM416.081928 167.622928 289.43039 167.622928 289.43039 294.275489l126.652562 0L416.082952 167.622928zM957.94098 395.788487 848.976266 395.788487c0 180.53168-146.379858 326.911538-326.95861 326.911538L522.017656 831.696462C762.767835 831.696462 957.94098 636.492618 957.94098 395.788487zM794.492374 395.788487 685.52766 395.788487c0 90.274026-73.15923 163.448606-163.510004 163.448606L522.017656 668.201807C672.47846 668.201807 794.492374 546.218592 794.492374 395.788487zM603.58744 477.342921c26.530236-26.545586 26.530236-69.540819 0-96.071056-26.530236-26.514887-69.511143-26.545586-96.04138 0-26.530236 26.513864-26.530236 69.524446 0 96.071056S577.057203 503.857808 603.58744 477.342921z"  horiz-adv-x="1024" />

    
    <glyph glyph-name="chuanganqishebei" unicode="&#58898;" d="M877.526509 770.187573l-49.620118-50.306756c163.957189-185.934736 163.826206-469.313805 0.065492-656.600329l50.752918-51.472302C1068.559357 211.925946 1068.16743 570.769754 877.526509 770.187573zM761.601266 652.605597l-51.254338-51.972699c99.959619-120.195499 100.003622-297.352315 0.500397-418.46265l50.79692-51.603285C889.114428 280.582629 889.267924 503.864972 761.601266 652.605597zM193.949782 719.880817l-49.609884 50.306756C-46.332746 570.769754-46.703183 211.925946 143.120117 11.809209l50.752918 51.472302C30.102087 250.567012 29.960871 533.946081 193.949782 719.880817zM260.244674 652.605597c-127.677914-148.741649-127.503952-372.022968-0.054235-522.037611l50.818409 51.603285c-99.502202 121.110335-99.469456 298.267151 0.457418 418.46265L260.244674 652.605597zM510.66612 557.111686c-90.854241 0-164.479075-74.735122-164.479075-166.897148 0-92.139513 73.624834-166.897148 164.479075-166.897148 90.833775 0 164.501588 74.757634 164.501588 166.897148C675.167708 482.376565 601.499895 557.111686 510.66612 557.111686z"  horiz-adv-x="1024" />

    
    <glyph glyph-name="dianliuchuanganqi" unicode="&#58924;" d="M481.518267 765.170303l0-126.770242 63.385633 0L544.903899 765.170303 481.518267 765.170303zM893.522832 416.550347 766.751566 416.550347l0-63.384609 126.771265 0L893.522832 416.550347zM132.899334 353.165738l126.770242 0 0 63.384609L132.899334 416.550347 132.899334 353.165738zM356.364849 586.584951l-89.630367 89.630367-44.798299-44.814672 89.597621-89.630367L356.364849 586.584951zM759.984443 676.430212 479.636407 401.298991l44.369533-45.260833 280.348036 275.148617L759.984443 676.430212zM898.772392 713.620229l-47.571459-41.811268c70.714552-80.567967 105.708554-179.278129 105.708554-286.951431 0-244.659209-199.038172-443.697381-443.698404-443.697381-244.660232 0-443.696358 199.038172-443.696358 443.697381 0 244.661256 199.036126 443.697381 443.696358 443.697381 107.688651 0 203.428156-35.984562 283.97975-106.73186l41.828664 47.637973C746.909659 850.360544 636.284119 891.940544 513.21006 891.940544c-279.588743 0-507.08199-227.477898-507.08199-507.083014 0-279.58772 227.494271-507.083014 507.08199-507.083014s507.083014 227.494271 507.083014 507.083014C1020.294097 507.94694 979.68726 621.496066 898.772392 713.620229zM513.21006 163.00884c66.026786 0 126.077463-33.177634 160.741961-88.706321l53.778834 33.540907c-46.317908 74.247005-126.506229 118.550023-214.520795 118.550023-87.979774 0-168.136372-44.303019-214.487026-118.516254l53.745065-33.574676C387.199111 129.831206 447.250812 163.00884 513.21006 163.00884z"  horiz-adv-x="1024" />

    
    <glyph glyph-name="dianyachuanganqi" unicode="&#58927;" d="M976.780047 30.76391l-12.130272 0 0-0.633427L37.487288 30.130484l0 24.660656c-23.660886 57.919131-37.357839 120.502491-37.357839 186.886411 0 278.945083 229.175563 505.071194 511.87004 505.071194 282.694477 0 511.87004-226.12611 511.87004-505.071194C1023.869528 166.128901 1006.939951 95.147266 976.780047 30.76391zM511.999488 672.849664c-241.305835 0-436.988586-193.033411-436.988586-431.173137 0-45.589314 7.43125-89.210811 20.794605-130.234133L928.193469 111.442394c13.363356 41.023322 20.794605 84.644819 20.794605 130.234133C948.988074 479.816253 753.338069 672.849664 511.999488 672.849664zM799.7931 274.068262l103.039771 0 0-60.983933L799.7931 213.084329 799.7931 274.068262zM729.476615 404.219507l86.47756 55.218626 33.592073-51.220568-86.511329-55.202253L729.476615 404.219507zM470.143195 265.204383l301.322743 246.487857L521.663592 211.817476 470.143195 265.204383zM611.239723 503.593795l58.351989 83.779102 50.953486-34.558074-58.384735-83.761706L611.239723 503.593795zM470.143195 619.697093l61.817927 0 0-101.657284-61.817927 0L470.143195 619.697093zM526.163069 334.319507l-95.175663-71.182202L525.829472 176.793798l70.182432 93.310176c2.466168-8.264221 4.199649-16.829294 4.199649-25.859971 0-50.887994-41.789779-92.14463-93.376691-92.14463-51.553143 0-93.342921 41.256636-93.342921 92.14463 0 50.852178 41.789779 92.109838 93.342921 92.109838C513.464863 336.352817 519.897366 335.62013 526.163069 334.319507zM281.558096 552.814824l50.953486 34.558074 58.350966-83.779102-50.92074-34.541701L281.558096 552.814824zM259.663436 353.016335l-86.47756 55.202253 33.558303 51.220568 86.47756-55.218626L259.663436 353.016335zM222.906278 213.084329 119.866507 213.084329l0 60.983933 103.039771 0L222.906278 213.084329z"  horiz-adv-x="1024" />

    
    <glyph glyph-name="wenduchuanganqi" unicode="&#58935;" d="M635.026476 793.776827l-2.062985-519.835456c62.424748-38.300304 104.286158-105.784278 104.286158-183.28335 0-119.792317-99.162464-216.890772-221.48337-216.890772-122.32193 0-221.484394 97.098455-221.484394 216.890772 0 67.850317 18.334577 118.195959 68.149123 157.926846L362.431008 793.776827c0 60.329017 60.195987 102.223173 121.822556 102.223173l22.294772 0C568.14216 896 635.026476 854.105844 635.026476 793.776827zM504.718665 844.306664l-14.074553 0c-38.932708 0-60.062957-46.485731-60.062957-84.603887l0-511.11791c10.41521-19.764136-19.399839-31.67849-19.399839-31.67849-37.46938-29.814026-61.493539-75.269287-61.493539-126.280078 0-89.813538 74.371848-162.619728 166.079526-162.619728 91.707678 0 166.045757 72.806189 166.045757 162.619728 0 61.526285-34.904974 115.065665-86.35067 142.685723 0 0-33.608445-5.390777-28.584012 15.273868L566.878376 418.958186l0 0 0 34.075073 0 0 0 68.149123 0 0 0 34.07405 0 0 0 68.149123-34.07405 0 0 34.07405 34.07405 0 0 68.149123-68.149123 0L498.729254 759.702778l68.149123 0 0 0C566.878376 797.803537 543.618627 844.306664 504.718665 844.306664zM532.804327 555.255409l-34.075073 0 0-68.1481 34.075073 0 0-34.07405-34.075073 0 0-68.149123 34.075073 0 0-170.371272c82.190931 0.663102 115.100458-64.588017 115.100458-123.920334 0-71.477938-59.163471-129.410372-132.171252-129.410372-72.972988 0-132.171252 57.932434-132.137483 129.410372-0.032746 50.045813 38.632879 102.388948 81.060177 123.920334L464.656227 589.330482c0 22.577205 7.387247 28.300556 30.446429 28.300556l8.352225 0c23.060205 0 29.350468-5.723352 29.350468-28.300556L532.80535 555.255409zM427.751712 98.478128c-5.257747-73.705676 77.865415-105.983823 67.349921-95.700619-75.235518 90.841961 0.333598 167.675884 0.333598 167.675884S433.00946 172.184827 427.751712 98.478128z"  horiz-adv-x="1024" />

    
    <glyph glyph-name="xinjian" unicode="&#58911;" d="M484.636862 438.440747l71.382099 0 0-380.704526-71.382099 0 0 380.704526ZM329.975648 283.779533l380.704526 0 0-71.382099-380.704526 0 0 71.382099ZM853.49196-128l-666.232921 0c-45.922484 0-83.279115 37.356632-83.279115 83.279115l0 856.585184c0 45.922484 37.356632 83.279115 83.279115 83.279115l499.674691 0 0-245.030951 249.837345 0 0-694.833349C936.771075-90.643368 899.414444-128 853.49196-128zM187.211451 823.808904c-6.567153 0-11.897016-5.329863-11.897016-11.897016l0-856.585184c0-6.519565 5.329863-11.897016 11.897016-11.897016l666.232921 0c6.519565 0 11.897016 5.377451 11.897016 11.897016L865.341389 578.730365l-209.38749 0c-22.318803 0-40.449856 18.131053-40.449856 40.449856l0 204.628683L187.211451 823.808904zM687.620202 895.930264l249.838326-245.043838-50.015067-50.993653-249.838326 245.043838 50.015067 50.993653Z"  horiz-adv-x="1024" />

    
    <glyph glyph-name="handong" unicode="&#59547;" d="M661.078317 322.582185l-0.424672 0c-12.516058 62.577221-73.692373 110.128213-147.444097 110.128213-73.760934 0-134.936225-47.550992-147.452283-110.128213l-0.424672 0-2.046612-154.177452L3.477194 168.404734 3.477194 357.192448l183.16874 0c45.800116 129.105427 171.940001 245.426689 326.563614 245.426689 154.630776 0 282.757922-116.269074 327.686181-245.426689l182.03901 0 0-188.786691L663.124929 168.405757 661.078317 322.582185 661.078317 322.582185zM663.124929 322.582185"  horiz-adv-x="1039" />

    
    <glyph glyph-name="guanwanggongcheng" unicode="&#58950;" d="M698.251105 526.406137l0 12.718174-0.785534 0c-11.783014 122.519963-117.872219 149.957553-181.046941 155.32537l0 0.528365L509.194521 694.978046c-23.491215 1.477553-39.52453 0-39.52453 0L335.736402 694.978046 335.736402 775.644932 190.206831 775.644932l0-66.910685 88.517553 0 0-303.753936L190.206831 404.980311l0-66.915361 145.529571 0 0 81.559963L391.738447 419.624913c14.911123 0 19.530813-17.108749 20.779251-31.692566l0-280.01958 285.728731 0L698.246429 502.755945C698.6579 511.027434 698.555032 518.821991 698.251105 526.406137zM294.35558 83.561205l314.363324 0 0-38.06568-314.363324 0 0 38.06568ZM519.434521 30.420749l314.358648 0 0-38.06568-314.358648 0 0 38.06568Z"  horiz-adv-x="1024" />

    
    <glyph glyph-name="shenhe" unicode="&#58937;" d="M105.820232-120.857651C64.236667-109.660723 27.411913-74.348186 12.119439-31.004672 5.418162-12.011264 4.338996 45.513677 4.338996 383.731661 4.338996 822.732718 2.85016 803.737027 40.621187 846.647182 51.705421 859.239536 71.692385 874.91934 85.036667 881.491189l24.262328 11.948818 374.120607 0 374.120596 0 30.359398-15.513854c23.464806-11.990669 35.010406-22.268669 50.839398-45.257748l20.48-29.743892 1.651866-73.424041c1.906483-84.743798-0.926618-94.620467-27.141683-94.620467-28.296192 0-33.390182 12.555991-33.390182 82.30207 0 65.275592-5.427558 80.345738-37.494682 104.107156-14.346035 10.630323-17.172685 10.710774-376.319974 10.710774-353.91042 0-362.259282-0.227686-379.785344-10.357135-10.612449-6.133627-22.617713-19.625221-29.44-33.084877l-11.52-22.727741 0-381.830246 0-381.830252 11.52-22.727731c20.269066-39.988736 30.674616-43.050138 156.358226-46.002022 117.996237-2.771354 118.599762-2.93248 118.763372-31.709696 0.152627-26.841088-12.061092-29.767014-122.660828-29.384755-63.235763 0.218624-108.786109 2.716518-123.939533 6.7968zm881.558764-3.607757c-4.224 1.499392-41.231514 35.992934-82.238976 76.652339l-74.558976 73.926195-44.103629-27.689114c-25.623398-16.086886-63.033754-33.893734-89.281024-42.496563-41.524122-13.610035-51.1808-14.797107-119.417395-14.679808-69.873357 0.12032-76.878418 1.064141-119.097421 16.049869C395.036129-20.111462 361.300147 1.430784 311.538995 51.256115 262.390927 100.467507 235.658875 142.532096 215.58871 202.24c-12.511985 37.222605-13.768264 47.96759-13.768264 117.76 0 69.79242 1.256279 80.537385 13.768264 117.760005 20.055936 59.665562 46.780006 101.739858 95.950285 151.063839 49.056845 49.210194 90.8493 75.731021 151.04 95.847572 37.132913 12.410327 48.135788 13.68939 117.76 13.68939 69.624218 0 80.627098-1.279063 117.76-13.68939 60.319949-20.159749 101.981082-46.623293 151.04-95.942001 74.784922-75.180964 107.446374-148.248596 111.582054-249.622446 3.700634-90.710733-14.987776-160.174234-62.006221-230.472602l-25.27616-37.791027 77.450138-78.034074c50.603418-50.984909 77.450189-81.76937 77.450189-88.810035 0-5.92681-6.070733-15.551232-13.490483-21.387622-14.189926-11.161805-15.216794-11.426355-27.469517-7.077018zm-340.48 132.14208C754.299341 30.148301 842.336768 107.580211 882.663936 215.04c12.872499 34.301338 14.44823 45.231155 14.762854 102.4 0.315392 57.31159-1.149696 68.373775-14.018918 105.851551C857.415885 498.985533 801.750579 564.265754 731.896627 600.972974 683.527885 626.390042 655.183821 634.616238 603.363738 638.276659 541.003213 642.68162 494.004567 633.436759 439.14519 605.974072 384.940047 578.838897 345.948288 544.543478 312.578698 494.651796 275.30132 438.917489 262.898995 395.316419 262.898995 320c0-53.973504 1.746447-66.526003 14.371098-103.291546 27.106263-78.938931 84.466084-144.234547 159.048038-181.052518 68.934246-34.029926 137.880192-43.190579 210.580864-27.979264zM563.558246 74.530304c-13.222246 9.261261-15.353754 33.40375-3.955507 44.802048 4.083098 4.083046 20.746598 9.088307 37.02999 11.12279 45.687859 5.708339 80.55552 21.16567 111.462656 49.413069 34.013338 31.086234 52.339507 66.753536 61.549619 119.790746 7.426662 42.767309 12.398182 49.329715 35.814246 47.274906 25.12128-2.204467 31.882854-20.671078 24.258714-66.253056-17.310771-103.494502-94.344448-185.430323-194.237542-206.598093-44.513843-9.432678-57.93536-9.349171-71.922176 0.447488zM358.584428 384.199455c-14.369915 13.387617-14.099942 20.028928 2.114944 52.027469 24.904371 49.146409 96.336589 111.42336 127.966085 111.565036 15.409935 0.069018 28.750019-16.847237 26.777334-33.955748-1.274112-11.049964-8.442353-18.90623-30.606889-33.544699-29.857388-19.719173-58.246625-50.690289-72.872315-79.49973-14.032369-27.640704-34.643323-34.047411-53.379159-16.592328z"  horiz-adv-x="1029" />

    
    <glyph glyph-name="zhihuishequ" unicode="&#58880;" d="M0 38.4h1024v-70.4h-1024v70.4zM64 614.4v-576h192v576h-192zM192 230.4h-64v64h64v-64zM192 358.4h-64v64h64v-64zM192 486.4h-64v64h64v-64zM320 742.401v-703.999h198.4v703.999h-198.4zM448 230.4h-63.999v63.999h63.999v-63.999zM448 358.4h-63.999v63.999h63.999v-63.999zM448 486.4h-63.999v63.999h63.999v-63.999zM448.001 614.4h-63.999v63.999h63.999v-63.999zM582.4 806.4v-768h320v768h-320zM710.4 294.4h-64v64h64v-64zM710.4 422.4h-64v64h64v-64zM710.4 550.4h-64v64h64v-64zM710.4 678.4h-64v64h64v-64zM838.4 294.4h-64v64h64v-64zM838.4 422.4h-64v64h64v-64zM838.4 550.4h-64v64h64v-64zM838.4 678.4h-64v64h64v-64z"  horiz-adv-x="1024" />

    
    <glyph glyph-name="bianpoweiyi" unicode="&#58890;" d="M770.005333 503.082667l183.637333-265.685333 0-231.338667L70.357333 6.058667 770.005333 503.082667M770.005333 530.773333c-5.674667 0-11.306667-1.792-16-5.12L54.314667 28.629333c-9.813333-6.954667-13.994667-19.498667-10.325333-30.976 3.669333-11.52 14.336-19.285333 26.368-19.285333l883.285333 0c15.274667 0 27.690667 12.416 27.690667 27.690667l0 231.338667c0 5.632-1.706667 11.136-4.906667 15.701333L792.789333 518.826667c-4.181333 6.101333-10.666667 10.24-17.962667 11.52C773.205333 530.645333 771.626667 530.773333 770.005333 530.773333L770.005333 530.773333zM597.504 761.941333c33.706667 0 61.013333-27.306667 61.013333-60.970667S631.210667 640 597.504 640c-33.621333 0-60.928 27.306667-60.928 60.970667S563.882667 761.941333 597.504 761.941333M597.504 789.632c-48.896 0-88.618667-39.765333-88.618667-88.661333s39.765333-88.661333 88.618667-88.661333c48.896 0 88.704 39.765333 88.704 88.661333S646.4 789.632 597.504 789.632L597.504 789.632zM435.797333 541.866667c25.258667 0 45.738667-20.48 45.738667-45.738667s-20.48-45.738667-45.738667-45.738667c-25.258667 0-45.738667 20.48-45.738667 45.738667S410.581333 541.866667 435.797333 541.866667M435.797333 569.557333c-40.490667 0-73.429333-32.938667-73.429333-73.429333 0-40.490667 32.938667-73.429333 73.429333-73.429333 40.490667 0 73.429333 32.938667 73.429333 73.429333C509.269333 536.618667 476.330667 569.557333 435.797333 569.557333L435.797333 569.557333zM112.426667 222.592c15.616 0 28.288-12.672 28.288-28.288 0-15.658667-12.672-28.330667-28.288-28.330667-15.658667 0-28.330667 12.672-28.330667 28.330667C84.096 209.92 96.768 222.592 112.426667 222.592M112.426667 250.24c-30.890667 0-56.021333-25.088-56.021333-55.978667 0-30.933333 25.130667-56.021333 56.021333-56.021333 30.848 0 55.978667 25.088 55.978667 56.021333C168.362667 225.152 143.274667 250.24 112.426667 250.24L112.426667 250.24zM681.770667 347.392 759.253333 366.72 770.005333 314.794667ZM711.168 182.656 802.389333 237.354667 831.104 194.261333ZM624.128 69.802667 780.842667 107.989333 820.693333 55.936ZM614.4 304.341333 565.205333 222.592 589.781333 172.714667 614.4 222.592ZM399.872 136.192 462.165333 151.125333 478.762667 97.408 371.157333 71.168ZM536.576 554.325333 597.504 579.669333 567.04 496.128ZM722.474667 609.706667 780.842667 593.066667 699.776 541.866667ZM275.242667 381.269333 328.021333 415.872 356.949333 372.949333 235.093333 314.794667Z"  horiz-adv-x="1024" />

    
    <glyph glyph-name="jianzhu" unicode="&#58975;" d="M291.2-27.2c4.8-1.6 9.6-3.2 12.8-3.2 4.8 0 9.6 1.6 14.4 3.2L512 64l193.6-91.2c4.8-1.6 9.6-3.2 14.4-3.2 4.8 0 9.6 1.6 14.4 3.2l208 97.6c11.2 4.8 17.6 16 17.6 28.8L960 318.4c0 11.2-6.4 20.8-14.4 27.2L752 452.8 752 651.2l0 0c0 11.2-6.4 22.4-16 28.8L528 793.6C518.4 800 505.6 800 496 793.6l-208-115.2c-9.6-6.4-16-16-16-28.8l0 0 0-198.4L80 345.6c-9.6-6.4-14.4-16-14.4-27.2l0-217.6c0-12.8 6.4-24 17.6-28.8L291.2-27.2zM512 729.6l137.6-76.8L512 587.2l-137.6 65.6L512 729.6zM544 532.8l144 67.2 0-147.2-144-67.2L544 532.8zM480 385.6l-144 67.2 0 147.2 144-67.2L480 385.6zM272 52.8l-144 67.2 0 147.2 144-67.2L272 52.8zM304 256 166.4 320l137.6 76.8 150.4-70.4L304 256zM336 200l144 67.2 0-147.2-144-67.2L336 200zM688 52.8l-144 67.2 0 147.2 144-67.2L688 52.8zM720 256l-150.4 70.4 150.4 70.4 139.2-76.8 0 0L720 256zM896 120l-144-67.2 0 147.2 144 67.2L896 120z"  horiz-adv-x="1024" />

    
    <glyph glyph-name="chuguan" unicode="&#58934;" d="M781.807471 531.05831 553.449529 531.05831l0 19.657712 0.138146-0.132006 64.050782 67.575048 137.355321 0 0 51.466162L263.91118 669.625226l0-51.466162 145.019885 0 61.625546-65.005526 0-22.095227L242.198669 531.05831c-100.803847 0-182.513824-81.71714-182.513824-182.514847 0-100.803847 81.711-182.519963 182.513824-182.519963l539.608801 0c100.802824 0 182.507684 81.716116 182.507684 182.519963C964.315154 449.341171 882.610294 531.05831 781.807471 531.05831zM553.449529 618.160087l35.036981 0-35.036981-36.960797L553.449529 618.160087zM438.095291 618.160087l32.462343 0 0-34.252105L438.095291 618.160087z"  horiz-adv-x="1024" />

    
    <glyph glyph-name="suidao" unicode="&#58910;" d="M157.04 284.072c0 52.648-0.104 105.304 0.04 157.904 0.648 241.336 128.04 364.912 371.664 360.648 151.704-2.68 262.56-75.552 308.544-208.112 14.752-42.416 25.528-88.416 26.72-133.112 3.688-140.224 3.688-280.64 1.456-420.952-1.248-76.344-9.736-75.352-84.888-75.144-100.92 0.28-204.528 0-305.168 0-94.32 0-177.608 1.984-265.128 2.136-39.04-2.136-52.16 28.696-52.304 64.024-0.352 84.232-0.096 168.416-0.096 252.608-0.248 0-0.544 0-0.84 0zM579.72 259.488c0 76.048 2.328 138.824-0.8 201.312-1.984 38.648-25.328 67.552-66.312 68.248-41.368 0.744-65.512-27.72-67.496-66.504-3.384-65.272-0.944-130.84-0.944-203.048 40.384-0.008 76.552-0.008 135.552-0.008zM447.696 257.048l-3.176 7.352-210.096-297.072 19.072-0.104 21.464-1.92zM580.424 262.416l-5.872-2.928 179.608-294.176 37.16 0z"  horiz-adv-x="1024" />

    
    <glyph glyph-name="data" unicode="&#59223;" d="M1024 384C1024 666.769792 794.769792 896 512 896 229.230208 896 0 666.769792 0 384 0 101.230208 229.230208-128 512-128 625.686419-128 733.786972-90.820171 822.292028-23.295213 832.066406-15.83785 833.944717-1.868762 826.487354 7.905617 819.029988 17.679996 805.0609 19.558308 795.286522 12.100943 714.473916-49.555057 615.842022-83.478261 512-83.478261 253.818886-83.478261 44.521739 125.818886 44.521739 384 44.521739 642.181114 253.818886 851.478261 512 851.478261 770.181114 851.478261 979.478261 642.181114 979.478261 384 979.478261 296.952627 955.670714 213.458976 911.318368 140.798694 904.912864 130.304873 908.227102 116.605263 918.720924 110.199761 929.214746 103.794257 942.914355 107.108495 949.319857 117.602317 997.906701 197.199765 1024 288.709606 1024 384ZM368.901888 420.424055 338.700849 417.813865 563.838502 242.092789 581.396516 228.38867 595.091066 245.954153 840.321161 560.501594C847.880329 570.197455 846.148198 584.185421 836.452335 591.744589 826.756474 599.303757 812.768508 597.571625 805.20934 587.875763L559.979243 273.328322 591.231806 277.189685 366.094153 452.910761 349.780358 465.643759 335.893114 450.300567 176.846524 274.579482C168.596353 265.464361 169.297534 251.38701 178.412655 243.136838 187.527777 234.886667 201.605128 235.587849 209.855299 244.70297L368.901888 420.424055Z"  horiz-adv-x="1024" />

    
    <glyph glyph-name="kuangshankaicai" unicode="&#58888;" d="M638.72 485.376 436.3776 616.0896l-3.9936-50.688 184.0128-112.7936c6.0928-5.7344 15.5136-7.3216 23.296-3.072 1.28 0.6656 2.5088 1.4848 3.4816 2.4064l3.9936-7.3728 9.6256 12.032-6.6048 12.2368c-0.3072 2.7136-1.024 5.376-2.304 7.936C645.6832 480.7168 642.4064 483.6352 638.72 485.376L638.72 485.376M698.4192 350.0032M955.904 217.3952l-240.7936 317.184-116.224-152.7808L550.656 445.3376l-148.1216-194.9696 96.6144 0-24.9856-33.024L955.904 217.344zM550.9632 359.68 568.32 347.136l88.8832 79.0016-9.7792 18.1248 9.4208 12.3904 57.9072-106.9568-1.8944-3.3792c-0.6144-1.024-11.4176-20.0704-33.792-32.256-5.5808-3.0208-11.776-5.5808-18.7904-7.3728-26.7776-6.8096-56.5248 0.1024-88.32 20.3776L542.6688 348.16 550.9632 359.68zM275.0464 438.6816l11.9808 14.8992L202.3936 453.5808l0-66.2016L146.6368 387.3792c-4.4544 0-8.0896-3.584-8.0896-8.0896L138.5472 348.16 88.5248 348.16c-4.5056 0-8.0896-3.6352-8.0896-8.0896l0-77.056c0-4.5056 3.584-8.0896 8.0896-8.0896l106.0864 0 0-16.1792L117.7088 238.7456c-1.3312 0.1024-2.7648 0.2048-4.1472 0.2048-25.088 0-45.4656-20.2752-45.4656-45.5168 0-25.088 20.3264-45.4144 45.4656-45.4144 1.3824 0 2.7648 0 4.096 0.2048l249.5488 0c0.5632-0.1024 1.0752-0.1024 1.6384-0.1024 25.088 0 45.5168 20.3776 45.5168 45.4144 0 25.1904-20.3776 45.5168-45.5168 45.5168-1.792 0-3.5328-0.1024-5.2736-0.3072L296.704 238.7456l0 16.1792 55.3984 0c4.4544 0 8.0896 3.584 8.0896 8.0896l0 77.056c0 3.2256-1.8944 5.9392-4.608 7.2704L326.7584 393.0624 323.0208 387.328 275.0464 438.6816 275.0464 438.6816M275.0464 238.6944 216.2688 238.6944l0 16.1792 58.7776 0L275.0464 238.6944 275.0464 238.6944M275.0464 238.6944M453.6832 596.0192c0 12.5952-10.1888 22.784-22.7328 22.784-8.192 0-15.4112-4.352-19.4048-10.9056L287.0272 453.5296 275.0464 438.6816l47.9744-51.3536 3.7376 5.7344 124.0064 191.5904-0.0512 0C452.608 588.032 453.6832 591.872 453.6832 596.0192L453.6832 596.0192M453.6832 596.0192M122.4704 194.2016M98.3552 194.2016M352 194.2016M327.8848 194.2016M421.4784 620.032M408.5248 620.032"  horiz-adv-x="1024" />

    
    <glyph glyph-name="wangluo" unicode="&#58903;" d="M736.232934 777.807798h-448.922521L62.848129 389.029325 287.309389 0.250852h448.922521l224.46126 388.778473L736.232934 777.807798zM714.634073 37.66055H308.90825l-202.862399 351.368775L308.909274 740.397076h405.725823l202.862399-351.368775L714.634073 37.66055zM680.117875 374.352952c-14.008799 0-26.808389-5.145024-36.64076-13.634057l-136.371287 77.926889A93.415201 93.415201 0 0 1 511.771674 467.878734a93.632265 93.632265 0 0 1-3.184284 24.257891l95.178332 47.589166c10.092438-9.734078 23.812501-15.731998 38.941431-15.731998 30.991985 0 56.115059 25.124098 56.115059 56.115059 0 30.991985-25.124098 56.115059-56.115059 56.115059-30.991985 0-56.115059-25.124098-56.115059-56.115059 0-2.346745 0.16075-4.653559 0.44027-6.924537l-95.186523-47.593261c-17.122434 21.805686-43.725023 35.813461-73.599949 35.813461-51.652967 0-93.525781-41.872814-93.525781-93.525781 0-39.839378 24.913178-73.854896 60.006848-87.333323l-13.646344-81.87499c-26.33945-4.618747-46.361528-27.590638-46.361528-55.252948 0-30.991985 25.124098-56.115059 56.11506-56.115059 30.991985 0 56.115059 25.124098 56.115059 56.115059 0 21.142208-11.696866 39.544499-28.96674 49.112708l13.648391 81.891372c26.64252 0.949142 50.444782 13.038156 66.891453 31.755803l136.38562-77.934055a56.411986 56.411986 0 0 1-0.907162-10.004384c0-30.991985 25.124098-56.115059 56.115059-56.115059 30.991985 0 56.115059 25.124098 56.115059 56.115059 0.002048 30.989937-25.121026 56.114035-56.113011 56.114035z"  horiz-adv-x="1024" />

    
    <glyph glyph-name="jiankong" unicode="&#58905;" d="M736.232934 777.807798h-448.922521L62.848129 389.029325 287.309389 0.250852h448.922521l224.46126 388.778473L736.232934 777.807798zM714.634073 37.66055H308.90825l-202.862399 351.368775L308.909274 740.397076h405.725823l202.862399-351.368775L714.634073 37.66055zM709.363111 581.659014c-52.828387 52.828387-123.066921 81.922089-197.777785 81.922089s-144.949398-29.093702-197.777784-81.922089-81.922089-123.066921-81.922089-197.777785 29.093702-144.949398 81.922089-197.777785 123.066921-81.922089 197.777784-81.922088 144.949398 29.093702 197.777785 81.922088 81.922089 123.066921 81.922089 197.777785-29.093702 144.949398-81.922089 197.777785z m-177.300078 40.089206c56.045435-4.73035 108.110004-28.818276 148.340506-69.048778s64.317404-92.294047 69.047754-148.340506h-71.869582a165.986146 165.986146 0 0 1-14.009823 49.309293c9.49756 10.841922 15.273297 25.022733 15.273297 40.534596 0 33.96842-27.634665 61.603084-61.603084 61.603085-16.463052 0-31.426112-6.50372-42.489193-17.062025a165.891948 165.891948 0 0 1-42.690899 11.142944v71.861391z m0-258.344697h104.164973c-8.722479-53.27173-50.891196-95.436351-104.164973-104.15883V363.403523z m109.132865 130.545379c0-11.924168-9.666501-21.59067-21.59067-21.59067s-21.59067 9.666501-21.59067 21.59067c0 11.924168 9.666501 21.59067 21.59067 21.59067s21.59067-9.666501 21.59067-21.59067z m-85.038796 8.108148a61.750524 61.750524 0 0 1-0.518086-7.854225c0-33.96842 27.634665-61.603084 61.603085-61.603084 3.574384 0 7.073 0.323548 10.482538 0.910234a125.282608 125.282608 0 0 0 8.495176-29.151039H532.063033V508.517766a125.251892 125.251892 0 0 0 24.094069-6.460716z m-65.049482-97.698114H386.942646c8.722479 53.27173 50.89222 95.435327 104.164974 104.15883v-104.15883z m-148.340506 148.340506c40.230502 40.230502 92.294047 64.318428 148.340506 69.048778v-71.861391c-75.889356-9.306094-136.221799-69.638536-145.527893-145.527893H273.718336c4.73035 56.045435 28.818276 108.10898 69.048778 148.340506z m148.340506-406.68418c-56.045435 4.73035-108.110004 28.817252-148.340506 69.047755s-64.318428 92.294047-69.048778 148.340506h71.860367c9.306094-75.888333 69.638536-136.221799 145.527893-145.527893v-71.860368zM386.942646 363.403523h104.164974v-104.15883c-53.272753 8.722479-95.442494 50.887101-104.164974 104.15883z m293.460893-148.340506c-40.230502-40.230502-92.294047-64.317404-148.340506-69.047755v71.861392c75.889356 9.306094 136.221799 69.638536 145.527893 145.527893h71.860367c-4.73035-56.047483-28.817252-108.111028-69.047754-148.34153z"  horiz-adv-x="1024" />

    
    <glyph glyph-name="dashuju" unicode="&#58906;" d="M736.232934 777.807798h-448.922521L62.848129 389.029325 287.309389 0.250852h448.922521l224.46126 388.778473L736.232934 777.807798zM714.634073 37.66055H308.90825l-202.862399 351.368775L308.909274 740.397076h405.725823l202.862399-351.368775L714.634073 37.66055zM702.027997 428.420241c-1.821492 0-3.613291-0.121842-5.377446-0.334811l-57.531092 89.131266c9.021454 11.03134 14.444974 25.115907 14.444974 40.445518 0 35.285136-28.706673 63.992833-63.992833 63.992833s-63.992833-28.707697-63.992833-63.992833c0-20.231974 9.448414-38.289216 24.153455-50.023965L432.361176 272.709809a57.620171 57.620171 0 0 1-6.604061 0.392148 57.306862 57.306862 0 0 1-12.382869-1.360744l-56.37615 88.752428a44.318876 44.318876 0 0 1 6.635801 23.387588c0 24.597821-19.941191 44.539012-44.539012 44.539012s-44.539012-19.941191-44.539011-44.539012 19.941191-44.539012 44.539011-44.539011c1.710912 0 3.397252 0.106484 5.057994 0.293855l56.384341-88.764715c-7.465148-9.655239-11.918025-21.757563-11.918025-34.907322 0-31.556146 25.581775-57.137921 57.13792-57.137921s57.137921 25.581775 57.137921 57.137921c0 15.254867-5.989729 29.102916-15.731998 39.349961l119.124962 238.438319a63.816725 63.816725 0 0 1 20.238117 2.214664l57.425632-88.967444a44.329115 44.329115 0 0 1-6.462764-23.117283c0-24.597821 19.941191-44.539012 44.539012-44.539011s44.539012 19.941191 44.539011 44.539011c0 24.596797-19.941191 44.537988-44.539011 44.537988zM564.48641 557.66119c0 13.831667 11.2525 25.08519 25.08519 25.08519s25.08519-11.253524 25.08519-25.08519-11.2525-25.08519-25.08519-25.085191-25.08519 11.253524-25.08519 25.085191z"  horiz-adv-x="1024" />

    
    <glyph glyph-name="shuju" unicode="&#58907;" d="M736.232934 777.807798h-448.922521L62.848129 389.029325 287.309389 0.250852h448.922521l224.46126 388.778473L736.232934 777.807798zM714.634073 37.66055H308.90825l-202.862399 351.368775L308.909274 740.397076h405.725823l202.862399-351.368775L714.634073 37.66055zM335.341898 553.231862l-58.928696-102.067032 58.928696-102.067033h117.856368l58.928696 102.067033-58.928696 102.067032zM453.198266 349.097797l-58.927672-102.068056 58.927672-102.067033h117.857392l58.928696 102.067033-58.928696 102.068056zM688.91305 553.231862H571.055658l-58.928696-102.067032 58.928696-102.067033h117.857392l58.928696 102.067033z"  horiz-adv-x="1024" />

    
    <glyph glyph-name="shenhechenggong" unicode="&#58919;" d="M840.405075 52.428048c-1.268594-0.990097-0.12389 0.12389-1.144704-1.144704-3.776089-2.382581-5.972323-6.00304-9.035788-9.066504-7.14672-7.179484-14.295487-14.387637-21.443231-21.567121-22.587934-22.309437-45.207609-44.618875-67.796566-66.960052-10.148751-10.582879-20.329243-21.164734-30.479019-31.778329-16.339162-11.634409-18.849729-5.030349-35.36807 11.735774-3.053226 3.099301-25.508055 27.614187-25.508056 27.614187 21.550738 21.368487 19.419009 19.132321 30.248645 29.992673 25.961636 26.487913 53.214392 51.707233 79.206744 78.193098 7.519414 7.549107 15.037804 15.132001 22.556194 22.682132 3.310221 3.310221-132.01363-130.868927-132.01363-130.868927-3.295887 2.599645-6.775049 6.807814-10.180492 10.210184l-21.44323 21.568145c-22.991345 23.084519-45.950949 46.136273-68.910554 69.219767-13.212216 13.275697 0.579519-7.480506-4.990418 13.098565-4.269602 15.749404 10.211208 29.395748 18.071576 33.5732 3.555954 1.887021 8.32214 1.083271 11.294479 3.404419 28.807014 0.061433 37.657478-14.669205 51.95399-29.027149 25.215224-24.970515 18.168845-17.64564 43.388164-42.616155 6.467884-6.469931 29.566737-30.455469 30.032605-30.632602 0 0 227.795031 227.316877 270.343609 270.450094 16.121074 11.510519 40.720943 4.858336 49.69325-7.952517 7.177436-10.242949 7.209177-30.633625 0-40.844834-43.288848-43.136289-86.607388-86.240837-129.898283-129.374054 0.959381-1.236853-0.124914-0.12389 1.112963-1.112963l-49.690178-48.796327zM287.420993 216.58963h216.5712c17.111172 0 30.942838-13.863407 30.942838-30.943862 0-17.111172-13.830643-30.942838-30.942838-30.942839H287.420993c-17.110148 0-30.942838 13.830643-30.942839 30.942839-0.001024 17.081479 13.832691 30.943862 30.942839 30.943862zM689.651271 587.905739H287.420993c-17.110148 0-30.942838 13.830643-30.942839 30.942838 0 17.081479 13.832691 30.942838 30.942839 30.942838H689.651271c17.111172 0 30.974579-13.862383 30.974579-30.942838-0.001024-17.110148-13.864431-30.942838-30.974579-30.942838zM689.651271 371.304846H287.420993c-17.110148 0-30.942838 13.831667-30.942839 30.944886 0 17.079431 13.832691 30.941815 30.942839 30.941815H689.651271c17.111172 0 30.974579-13.862383 30.974579-30.941815-0.001024-17.113219-13.864431-30.944886-30.974579-30.944886zM905.973667 754.078231c0 20.546307 0.649143 41.55541-7.735454 53.344426-9.314285 13.027917-31.530549 11.326219-54.058073 11.326219H130.074392c-22.525477 0-43.783384 1.702721-53.097669-11.326219-8.386645-11.789016-6.776073-32.798119-6.776073-53.344426v-699.717087c0-22.619675-1.670981-53.654663 11.294479-62.998641 10.830659-7.767194 24.322396-7.767194 42.948917-7.767194H482.437359v-0.958356c0.558018 0 1.022861 0.309213 1.577807 0.309213 17.081479 0 30.943862-13.862383 30.943863-30.943862 0-17.112195-13.863407-30.943862-30.943863-30.943863-4.640248 0-8.910874 1.144704-12.871262 2.970292H124.258723c-11.480826 0-25.249012-0.7116-35.028141 2.104084-31.128162 8.942614-58.730062 28.25002-71.169245 55.60414-10.613595 23.361991-9.035788 55.204825-9.035788 89.642185V752.994961c0 23.298511-1.331051 47.156063 5.66311 63.525941C24.312157 839.171293 43.559153 862.06844 65.497944 872.125042 71.470267 874.880317 78.648727 877.014094 84.712176 878.932856c3.836498 1.23583 8.539204 0.154607 11.294479 2.289407h782.240197C881.033868 879.087462 885.704833 880.170733 889.541331 878.932856c6.065497-1.918761 13.243957-4.053562 19.21628-6.807814 21.936743-10.056602 41.184763-32.953749 50.838978-55.60414 6.96242-16.368855 6.59075-40.226407 6.59075-63.525941v-331.447038c1.050506-3.062441 1.948454-6.220103 1.948454-9.652167 0-17.112195-13.830643-30.944886-30.942839-30.944886-17.080455 0-30.943862 13.831667-30.943862 30.944886 0 0.619451 0.340954 1.112963 0.372694 1.732414l-0.648119 340.450061z"  horiz-adv-x="1024" />

    
    <glyph glyph-name="jiankong1" unicode="&#58912;" d="M512 593.963c-83.338 0-161.688-32.454-220.617-91.383C232.454 443.652 200 365.302 200 281.964c0-17.673 14.327-32 32-32s32 14.327 32 32c0 66.243 25.796 128.521 72.638 175.362 46.841 46.841 109.119 72.638 175.362 72.638s128.521-25.796 175.362-72.638C734.203 410.485 760 348.207 760 281.964c0-17.673 14.327-32 32-32s32 14.327 32 32c0 83.338-32.454 161.688-91.383 220.617C673.688 561.51 595.338 593.963 512 593.963zM512 738C264.576 738 64 537.424 64 290c0-89.999 26.545-173.796 72.224-244h751.553C933.455 116.204 960 200.001 960 290c0 247.424-200.576 448-448 448z m339.288-628H172.712C143.373 165.187 128 226.772 128 290c0 51.868 10.144 102.15 30.15 149.451 19.337 45.719 47.034 86.792 82.321 122.078 35.286 35.287 76.359 62.983 122.078 82.321C409.85 663.856 460.132 674 512 674c51.868 0 102.15-10.144 149.451-30.15 45.719-19.337 86.792-47.034 122.078-82.321 35.287-35.286 62.983-76.359 82.321-122.078C885.856 392.15 896 341.868 896 290c0-63.228-15.373-124.813-44.712-180zM532.241 309.534a79.753 79.753 0 0 1-29.217-5.529l-69.087 69.087c-12.497 12.499-32.758 12.497-45.255 0.001-12.497-12.497-12.497-32.759 0-45.255l69.088-69.088a79.753 79.753 0 0 1-5.529-29.217c0-44.183 35.817-80 80-80s80 35.817 80 80-35.818 80.001-80 80.001z"  horiz-adv-x="1024" />

    
    <glyph glyph-name="wangluoxitong" unicode="&#58926;" d="M926 368.437c17.384 0 31.476 14.092 31.476 31.476S943.384 431.388 926 431.388H544v73.543h118c17.673 0 32 14.327 32 32V766.01c0 17.673-14.327 32-32 32H362c-17.673 0-32-14.327-32-32v-229.078c0-17.673 14.327-32 32-32h118v-73.543H98c-17.384 0-31.476-14.092-31.476-31.476S80.616 368.437 98 368.437h143.604v-72.783h-118c-17.673 0-32-14.327-32-32v-229.078c0-17.673 14.327-32 32-32h300c17.673 0 32 14.327 32 32V263.653c0 17.673-14.327 32-32 32h-118v72.783h412.228v-72.783h-122.61c-17.673 0-32-14.327-32-32v-229.078c0-17.673 14.327-32 32-32h300c17.673 0 32 14.327 32 32V263.653c0 17.673-14.327 32-32 32h-113.39v72.783H926zM394 734.01h236v-165.078H394V734.01z m-2.396-667.435h-236V231.653h236v-165.078z m471.618 0h-236V231.653h236v-165.078z"  horiz-adv-x="1024" />

    
    <glyph glyph-name="dingwei" unicode="&#58928;" d="M512 468.977m-90 0a90 90 0 1 1 180 0 90 90 0 1 1-180 0ZM512-14.402c-19.14 0-37.482 5.854-53.042 16.929-14.063 10.01-24.926 23.596-31.589 39.46L255.043 310.823l-0.154 0.25C225.522 358.791 210 413.395 210 468.979c0 80.667 31.414 156.506 88.454 213.546S431.333 770.979 512 770.979s156.506-31.414 213.546-88.454C782.587 625.485 814 549.646 814 468.979c0-55.849-15.655-110.671-45.274-158.539l-0.264-0.419-172.081-268.716c-6.755-15.726-17.66-29.176-31.704-39.055-15.485-10.895-33.7-16.652-52.677-16.652zM309.246 344.859l175.494-273.78 1.194-3.197c4.149-11.107 14.381-18.284 26.066-18.284 11.584 0 21.791 7.071 26.004 18.015l1.165 3.028L714.43 344.322C737.701 382.017 750 425.116 750 468.979c0 63.572-24.756 123.339-69.709 168.292-44.952 44.951-104.719 69.708-168.291 69.708s-123.339-24.756-168.292-69.708S274 532.551 274 468.979c0-43.64 12.186-86.552 35.246-124.12z"  horiz-adv-x="1024" />

    
    <glyph glyph-name="xitongyunzhuanqingkuang" unicode="&#58929;" d="M555.03 351.411L379.14 504.245c-4.622 4.4-10.871 7.106-17.756 7.106-14.228 0-25.763-11.534-25.763-25.763 0-3.946 0.89-7.683 2.476-11.026l-0.06-0.044 0.574-0.976c0.349-0.659 0.728-1.3 1.132-1.923l118.295-201.072c10.903-20.09 32.181-33.729 56.645-33.729 35.571 0 64.407 28.836 64.407 64.407 0 20.291-9.394 38.381-24.06 50.186zM927.179 341.095c0.064 3.006 0.104 6.016 0.104 9.033 0 55.605-10.897 109.565-32.391 160.379-20.752 49.064-50.454 93.122-88.281 130.949s-81.885 67.529-130.949 88.282c-50.814 21.493-104.773 32.39-160.379 32.39s-109.565-10.897-160.379-32.39c-49.064-20.752-93.122-50.455-130.949-88.282s-67.529-81.885-88.282-130.949c-21.493-50.814-32.39-104.773-32.39-160.379 0-3.016 0.04-6.025 0.104-9.031a32.44 32.44 0 0 1-0.104-2.466c0-1.465 0.107-2.905 0.298-4.318 1.987-53.249 14.026-104.718 35.87-153.217 23.177-51.458 56.132-96.929 97.95-135.15a31.884 31.884 0 0 1 21.58-8.38c8.673 0 17.317 3.505 23.629 10.411 11.923 13.045 11.014 33.286-2.031 45.209-35.348 32.308-63.196 70.728-82.773 114.193-14.285 31.717-23.596 64.958-27.848 99.252H224.8c17.673 0 32 14.327 32 32s-14.327 32-32 32h-56.902c4.92 85.243 40.44 164.698 101.312 225.57 55.891 55.891 127.45 90.413 204.77 99.5v-60.798c0-17.673 14.327-32 32-32 17.673 0 32 14.327 32 32V697.38c84.411-5.399 163.027-40.829 223.376-101.178 60.872-60.872 96.392-140.327 101.312-225.57h-56.902c-17.673 0-32-14.327-32-32s14.327-32 32-32h54.841c-4.203-33.9-13.352-66.778-27.361-98.17-19.265-43.167-46.697-81.417-81.535-113.689-12.966-12.011-13.739-32.257-1.729-45.222s32.256-13.74 45.222-1.729c41.216 38.181 73.679 83.452 96.486 134.558 21.48 48.13 33.327 99.171 35.296 151.94 0.19 1.411 0.297 2.849 0.297 4.313 0 0.828-0.042 1.648-0.104 2.462z"  horiz-adv-x="1024" />

    
    <glyph glyph-name="chakan" unicode="&#58942;" d="M607.839811 0.042898H214.69447A86.82497 86.82497 0 0 0 127.880338 86.929279V681.215219A86.839419 86.839419 0 0 0 214.69447 768.119662h594.28594a86.33729 86.33729 0 0 0 61.436749-25.456857c16.400473-16.400473 25.362934-38.208767 25.373771-61.411462L894.439878 288.178251v-0.10476a32.031496 32.031496 0 0 1 64.059379-0.101149L959.825022 681.110458v0.104761A150.775976 150.775976 0 0 1 808.98041 832.059831H214.69447A150.638703 150.638703 0 0 1 63.940169 681.215219v-594.28594a150.638703 150.638703 0 0 1 150.757914-150.82655h393.141728a31.970084 31.970084 0 0 1 0 63.940169zM950.544667-9.331381l-122.071536 122.071536a192.217875 192.217875 0 1 1-45.213286-45.213286l122.071536-122.071536a31.970084 31.970084 0 0 1 45.213286 45.213286z m-278.547941 105.302594a128.028448 128.028448 0 1 0 90.531332 37.497116 127.193975 127.193975 0 0 0-90.527719-37.497116zM768.004516 543.787205c17.653989 0 31.966472 14.402794 31.970084 32.056783s-14.308871 32.074845-31.966472 32.078457L256.002709 608.088618a32.020659 32.020659 0 0 1-31.970084-32.024271c0-17.657601 14.308871-32.092907 31.966472-32.092908L768.004516 543.787205zM448.000226 351.966698a31.96286 31.96286 0 1 1 0 63.940169h-192.001129a31.937573 31.937573 0 1 1 0-63.878758l192.001129-0.061411zM256.017159 224.08636a31.959247 31.959247 0 1 1 0-63.922107l127.999549-0.018062a31.941185 31.941185 0 1 1 0 63.878757z"  horiz-adv-x="1024" />

    
    <glyph glyph-name="lianjie" unicode="&#58943;" d="M448.000226 160.146191H344.008946c-27.021043 0-53.977062 5.8955-80.11667 17.700951-25.287072 11.415307-49.327854 28.292622-69.517775 48.887136-20.663151 21.078581-36.962475 45.224123-48.442806 71.811673-11.921048 27.595421-17.957434 56.354047-17.957434 85.470305S134.021484 441.89114 145.942533 469.486561c11.480331 26.583938 27.779655 50.751154 48.442806 71.829736 20.189921 20.590902 44.230702 37.544078 69.517774 48.959384 26.139608 11.801838 53.102852 17.812936 80.116671 17.812937h103.991279a31.970084 31.970084 0 0 1 0 63.940169h-104.002117c-36.153289 0-71.963396-7.918466-106.426063-23.480853-32.912931-14.857961-62.813088-35.882356-88.865997-62.462682-26.190182-26.732048-46.875007-57.437779-61.483711-91.250207-15.392602-35.643935-23.199083-72.938754-23.199083-110.833239s7.806481-75.185691 23.199083-110.833238c14.608703-33.830491 35.297141-64.528997 61.483711-91.242983 26.056522-26.580326 55.956679-47.503572 88.865997-62.361533 34.462667-15.558774 70.269162-23.35803 106.426063-23.35803h103.99128a31.970084 31.970084 0 1 1 0 63.940169zM936.770437 494.831432c-14.608703 33.830491-35.293528 64.528997-61.48371 91.242983-26.056522 26.580326-55.956679 47.622782-88.865998 62.495193-34.462667 15.558774-70.272774 23.480853-106.426063 23.480853h-103.994892a31.970084 31.970084 0 0 1 0-63.940169h103.99128c27.021043 0 53.977062-6.011098 80.11667-17.812936 25.287072-11.415307 49.327854-28.350421 69.517775-48.948548 20.663151-21.078581 36.962475-45.253022 48.442806-71.840572 11.921048-27.595421 17.957434-56.354047 17.957434-85.484755s-6.04361-57.889334-17.957434-85.481142c-11.480331-26.583938-27.779655-50.754767-48.442806-71.833348-20.189921-20.590902-44.230702-37.42848-69.517775-48.843787-26.139608-11.801838-53.102852-17.700951-80.11667-17.700951h-103.99128a31.970084 31.970084 0 0 1 0-63.940169h103.99128c36.153289 0 71.963396 7.799256 106.426063 23.35803 32.912931 14.857961 62.813088 35.824557 88.865997 62.404883 26.190182 26.732048 46.875007 57.390817 61.483711 91.221307 15.392602 35.643935 23.199083 72.924305 23.199083 110.818789s-7.802868 75.156792-23.195471 110.804339zM285.924541 384.298026A31.970084 31.970084 0 0 1 317.894625 352.327942h388.337185a31.970084 31.970084 0 0 1 0 63.940169H317.894625a31.970084 31.970084 0 0 1-31.970084-31.970085z"  horiz-adv-x="1024" />

    
    <glyph glyph-name="shujudaochu-01" unicode="&#58944;" d="M927.854938 607.969407a31.973697 31.973697 0 0 1-31.970084-31.998984v-489.12423A86.66241 86.66241 0 0 0 809.14297 0.115146H214.85703a86.373415 86.373415 0 0 0-61.476486 25.380996C136.976459 41.90384 127.880338 63.657947 127.880338 86.85703v489.12423A96.127 96.127 0 0 0 224.000113 672.028787h563.179228l-41.904291-42.243861a32.002596 32.002596 0 0 1 45.433644-45.08685l96.000565 96.766401a31.998984 31.998984 0 0 1-0.090311 45.155487l-95.99334 96.007789a32.006209 32.006209 0 0 1-45.256635-45.271085L786.745849 735.968956H224.000113A159.947958 159.947958 0 0 1 63.940169 575.999323v-489.124231A150.566454 150.566454 0 0 1 214.85703-63.825022h594.28594A150.309971 150.309971 0 0 1 959.825022 86.85703v489.12423a31.973697 31.973697 0 0 1-31.970084 31.988147zM287.911382 256.002258V127.995484a31.970084 31.970084 0 1 1 63.940169 0v128.006774a31.970084 31.970084 0 1 1-63.940169 0zM480.093133 511.997742v-384.002258a31.970084 31.970084 0 1 1 63.940169 0V511.997742a31.970084 31.970084 0 1 1-63.940169 0zM671.91364 320.000226V127.995484a31.970084 31.970084 0 1 1 63.940169 0v192.001129a31.970084 31.970084 0 1 1-63.940169 0.003613z"  horiz-adv-x="1024" />

    
    <glyph glyph-name="xitongzhuangtai" unicode="&#58946;" d="M959.825022 704.060283C959.825022 774.7521 902.517291 832.059831 831.825474 832.059831H191.939717C121.2479 832.059831 63.940169 774.7521 63.940169 704.060283v-639.885757C63.940169-6.517291 121.2479-63.825022 191.939717-63.825022h639.885757c70.691817 0 127.999548 57.307731 127.999548 127.999548V704.060283zM146.715595 749.33498a63.839021 63.839021 0 0 0 45.372232 18.784682h639.824346A64.037705 64.037705 0 0 0 895.884854 703.998871V415.906867s0.0289 0 0 0h-50.527184l-54.764574 54.710387a31.970084 31.970084 0 0 1-52.933067-12.506263L698.078535 339.323162l-93.482694 186.965389a31.970084 31.970084 0 0 1-58.279477-2.423947l-93.269561-233.168483-102.307883 358.086621a31.970084 31.970084 0 0 1-59.330697 5.519807l-119.264671-238.269247L127.880338 415.906867V703.998871A63.777609 63.777609 0 0 0 146.715595 749.33498z m730.43515-730.536299a63.456102 63.456102 0 0 0-45.253022-18.67631H192.087827c-17.112123 0-33.270563 6.574639-45.372232 18.67631S127.880338 46.889006 127.880338 64.001129V351.966698l64.135241 0.180622a32.024271 32.024271 0 0 1 28.538267 17.668439l91.261045 182.395653L417.236696 183.218838a31.977309 31.977309 0 0 1 29.112645-23.144896q0.823636-0.043349 1.64366-0.043349a31.973697 31.973697 0 0 1 29.676186 20.095998l101.560108 253.900269 96.163124-192.322635a31.970084 31.970084 0 0 1 58.926104 4.186816l47.651681 142.951433 27.552072-27.523172a31.970084 31.970084 0 0 1 22.60303-9.352604H895.884854c0.0289 0 0 0 0 0v-287.965569a63.398303 63.398303 0 0 0-18.719659-45.209673z"  horiz-adv-x="1024" />

    
    <glyph glyph-name="xiaofeimingxidan" unicode="&#58947;" d="M959.825022 661.050585C959.825022 755.4978 883.262992 832.059831 788.815776 832.059831H234.949415C140.5022 832.059831 63.940169 755.4978 63.940169 661.050585v-553.866361C63.940169 12.737008 140.5022-63.825022 234.949415-63.825022h553.866361c94.443603 0 171.009246 76.562031 171.009246 171.009246V661.050585z m-63.940168-554.039758c0-28.599679-11.050451-55.400363-31.272884-75.622797S817.588852 0.115146 788.989173 0.115146H235.007214c-28.599679 0-55.515961 11.050451-75.738394 31.272884S127.880338 78.411148 127.880338 107.010827V660.992786A107.170226 107.170226 0 0 0 235.007214 768.119662h553.981959c28.599679 0 55.400363-11.166049 75.622797-31.388482S895.884854 689.592465 895.884854 660.992786v-553.981959zM799.999887 606.643642H224.000113a31.970084 31.970084 0 0 1 0-63.940169h575.999774a31.970084 31.970084 0 0 1 0 63.940169zM799.999887 415.906867H224.000113a31.970084 31.970084 0 1 1 0-63.940169h575.999774a31.970084 31.970084 0 1 1 0 63.940169zM799.999887 225.170092H224.000113a31.970084 31.970084 0 0 1 0-63.940169h575.999774a31.970084 31.970084 0 0 1 0 63.940169z"  horiz-adv-x="1024" />

    
    <glyph glyph-name="SQLshenhe" unicode="&#58949;" d="M575.764966 0.115146H223.765304A95.805493 95.805493 0 0 0 127.880338 96.000113V671.999887c0 25.648316 9.930595 49.808308 28.061426 67.942751s42.182449 28.177024 67.82354 28.177024h575.999775A96.202861 96.202861 0 0 0 895.884854 671.999887v-351.999661a31.970084 31.970084 0 1 1 63.940168 0V671.999887A160.031044 160.031044 0 0 1 799.765079 832.059831H223.765304A159.702312 159.702312 0 0 1 63.940169 671.999887v-575.999774A159.445829 159.445829 0 0 1 223.765304-63.825022h351.999662a31.970084 31.970084 0 1 1 0 63.940168zM925.376805 137.792419l-83.584612 83.584612a118.27125 118.27125 0 0 1-141.96885 19.221787 32.150706 32.150706 0 0 1-3.912271 4.750357L650.239007 291.024853a254.890078 254.890078 0 0 1 53.767541 156.978534c0 141.383635-114.615462 255.999097-255.999097 255.999097S192.001129 589.387021 192.001129 447.999774s114.615462-255.999097 255.999097-255.999097A254.890078 254.890078 0 0 1 604.975147 245.760993l45.675678-45.675677a32.150706 32.150706 0 0 1 4.750357-3.912272c-25.648316-45.108525-19.250687-103.499988 19.221787-141.968849l83.584612-83.584612a118.206227 118.206227 0 0 1 167.169224 0c46.163357 46.166969 46.163357 121.013092 0 167.172836zM522.719913 271.048066a191.66156 191.66156 0 0 0-182.019961 17.700951 192.745291 192.745291 0 0 0-69.633372 84.53107 191.66156 191.66156 0 0 0 17.70095 182.019961 192.745291 192.745291 0 0 0 84.531071 69.633372 191.66156 191.66156 0 0 0 182.01996-17.70095 192.745291 192.745291 0 0 0 69.633373-84.531071 191.66156 191.66156 0 0 0-17.700951-182.01996A192.745291 192.745291 0 0 0 522.719913 271.048066z m357.407482-255.186298a54.208259 54.208259 0 0 0-76.659567 0L719.875992 99.457217A54.208259 54.208259 0 0 0 796.542783 176.124008l83.584612-83.584612a54.208259 54.208259 0 0 0-0.007225-76.659566z"  horiz-adv-x="1024" />

    
    <glyph glyph-name="aislogo" unicode="&#58952;" d="M966.392 447.259L851.745 646.311a27.039 27.039 0 0 1-23.431 13.544h-42.126l-78.386 135.769a27.04 27.04 0 0 1-23.417 13.52H454.539a27.039 27.039 0 0 1-23.4-13.49l-20.99-36.249-156.729-0.025a27.04 27.04 0 0 1-23.413-13.52L115.084 546.809a27.041 27.041 0 0 1 0-27.04l20.925-36.243-78.386-135.769a27.041 27.041 0 0 1 0-27.04l114.923-199.052a27.04 27.04 0 0 1 23.417-13.52h41.85l78.386-135.769a27.04 27.04 0 0 1 23.417-13.52h229.845a27.04 27.04 0 0 1 23.417 13.52l20.925 36.243h156.773a27.04 27.04 0 0 1 23.417 13.52l114.923 199.052a27.041 27.041 0 0 1 0 27.04l-20.925 36.243 78.386 135.769a27.04 27.04 0 0 1 0.015 27.016zM767.96 338.718l-219.424 0.026 82.291 142.529a4.517 4.517 0 0 1 0 4.507L462.345 777.597h219.439l84.889-147.035 0.003-0.004 84.888-147.032-83.604-144.808z m62.68 90.538h104.516l-78.388-135.767L804.51 384l26.13 45.256z m-208.921 54.27L540.73 343.252 517.204 384l27.429 47.509c0.031 0.054 0.042 0.115 0.07 0.17 0.125 0.24 0.228 0.49 0.31 0.753 0.028 0.091 0.062 0.179 0.084 0.271 0.082 0.341 0.139 0.693 0.139 1.059a4.46 4.46 0 0 1-0.139 1.059c-0.022 0.092-0.056 0.181-0.084 0.272a4.565 4.565 0 0 1-0.31 0.753c-0.029 0.055-0.039 0.116-0.07 0.17L429.711 635.068a4.509 4.509 0 0 1-3.904 2.254h-49.653l78.384 135.768 167.181-289.564zM365.744 637.322h-52.255l-52.259 90.514 156.787 0.024-52.273-90.538z m-62.664 0h-49.655a4.508 4.508 0 0 1-3.904-2.254l-82.29-142.528-23.526 40.748 109.719 190.038 49.656-86.004z m-131.946-156.05l84.891 147.036h54.856l0.009-0.001 0.009 0.001h112.307l109.718-190.039H368.347a4.508 4.508 0 0 1-3.904-2.254L195.961 144.198 86.244 334.237l84.89 147.035z m199.814-52.016h161.975l-23.527-40.749h-54.859c-0.037 0-0.073-0.014-0.11-0.015a4.484 4.484 0 0 1-2.044-0.548c-0.08-0.044-0.154-0.093-0.231-0.142a4.454 4.454 0 0 1-0.652-0.499c-0.068-0.063-0.139-0.122-0.203-0.189a4.439 4.439 0 0 1-0.662-0.86L335.712 187.201a4.515 4.515 0 0 1 0-4.506l24.828-43.003H203.769l167.179 289.564z m-5.205-298.578l26.129-45.257-52.258-90.511-78.384 135.768h104.513z m31.334-54.272l24.826-43.001a4.508 4.508 0 0 1 3.904-2.253h164.579l-23.524-40.749h-219.44l49.655 86.003z m31.331-36.241L344.82 184.948l109.719 190.038 82.288-142.528a4.508 4.508 0 0 1 3.904-2.253h336.963l-109.718-190.04H428.408z m114.923 199.053l-80.987 140.276h47.055l27.427-47.51c0.044-0.076 0.103-0.137 0.152-0.21 0.087-0.134 0.177-0.264 0.279-0.389 0.095-0.115 0.197-0.221 0.301-0.326 0.1-0.1 0.2-0.197 0.311-0.288 0.13-0.107 0.266-0.201 0.406-0.292 0.069-0.046 0.128-0.102 0.2-0.144 0.034-0.02 0.073-0.025 0.107-0.044 0.314-0.17 0.64-0.315 0.984-0.406 0.035-0.01 0.071-0.009 0.107-0.018 0.302-0.072 0.61-0.11 0.92-0.119 0.044-0.001 0.088-0.017 0.132-0.017 0.051 0 0.099 0.018 0.15 0.019 0.062-0.002 0.119-0.018 0.18-0.018l229.505-0.027a4.509 4.509 0 0 1 3.904 2.253l24.841 43.027 53.556-92.759 0.001-0.003 24.83-43.005H543.331z m292.512 199.051l24.828 43.003a4.517 4.517 0 0 1 0 4.507l-82.289 142.529h47.325l109.457-190.039h-99.321z"  horiz-adv-x="1024" />

    
    <glyph glyph-name="qiao" unicode="&#59157;" d="M989.866667 759.466667H34.133333c-10.24 0-17.066667-6.826667-17.066666-17.066667v-51.2c0-10.24 6.826667-17.066667 17.066666-17.066667h100.693334v-112.64H92.16c-40.96 0-75.093333-34.133333-75.093333-78.506666v-276.48C17.066667 163.84 51.2 128 92.16 128h76.8c11.946667 153.6 158.72 276.48 339.626667 276.48C689.493333 404.48 836.266667 281.6 848.213333 128h76.8c42.666667 0 75.093333 35.84 75.093334 78.506667V482.986667c0 44.373333-34.133333 78.506667-75.093334 78.506666h-42.666666V674.133333H989.866667c10.24 0 17.066667 6.826667 17.066666 17.066667V742.4c0 10.24-6.826667 17.066667-17.066666 17.066667zM174.08 561.493333V674.133333h197.973333v-112.64H174.08z m237.226667 0V674.133333h197.973333v-112.64H411.306667z m433.493333 0H646.826667V674.133333h196.266666v-112.64z"  horiz-adv-x="1024" />

    
    <glyph glyph-name="tashiqizhongji" unicode="&#58901;" d="M863.5 620.4H28.8l41.5 107h793.2v-107z m-805.4 20h785.5v67H84l-25.9-67zM687.1-122.4h-107V640.1h107v-762.5z m-87 20h67V620.1h-67v-722.5zM989 598.3H845.6V757.5H989v-159.2z m-123.4 20H969V737.5H865.6v-119.2zM637.996 801.314l216.746-63.292-5.606-19.198-216.746 63.292zM639.919 801.128l3.08-19.762-473.004-73.72-3.08 19.762zM843 633.6l-25.1 43.6-25.2-43.6-17.4 10 42.6 73.6 42.5-73.6zM771 633.6l-25.2 43.6-25.2-43.6-17.3 10 42.5 73.6 42.5-73.6zM698.9 633.6l-25.2 43.6-25.2-43.6-17.3 10 42.5 73.6 42.5-73.6zM626.8 633.6l-25.2 43.6-25.2-43.6-17.3 10 42.5 73.6 42.5-73.6zM554.7 633.6l-25.2 43.6-25.2-43.6-17.3 10 42.5 73.6 42.5-73.6zM482.6 633.6l-25.1 43.6-25.2-43.6-17.4 10 42.6 73.6 42.5-73.6zM410.6 633.6l-25.2 43.6-25.2-43.6-17.3 10 42.5 73.6 42.5-73.6zM338.5 633.6l-25.2 43.6-25.2-43.6-17.3 10 42.5 73.6 42.5-73.6zM266.4 633.6l-25.2 43.6-25.2-43.6-17.3 10 42.5 73.6 42.5-73.6zM143.9 633.6l-17.3 10 42.5 73.6 42.5-73.6-17.3-10-25.2 43.6zM122.2 633.6l-25.1 43.6-25.2-43.6-17.4 10 42.6 73.6 42.5-73.6zM603.7-108.3l-10 17.4 43.6 25.1-43.6 25.2 10 17.4 73.6-42.6zM603.7-36.2l-10 17.3 43.6 25.2-43.6 25.2 10 17.3 73.6-42.5zM603.7 35.9l-10 17.3 43.6 25.2-43.6 25.2 10 17.3 73.6-42.5zM603.7 108l-10 17.3 43.6 25.2-43.6 25.2 10 17.3 73.6-42.5zM603.7 180.1l-10 17.3 43.6 25.2-43.6 25.2 10 17.3 73.6-42.5zM603.7 252.1l-10 17.4 43.6 25.1-43.6 25.2 10 17.4 73.6-42.6zM603.7 324.2l-10 17.3 43.6 25.2-43.6 25.2 10 17.3 73.6-42.5zM603.7 396.3l-10 17.3 43.6 25.2-43.6 25.2 10 17.3 73.6-42.5zM603.7 468.4l-10 17.3 43.6 25.2-43.6 25.2 10 17.3 73.6-42.5zM603.7 540.5l-10 17.3 43.6 25.2-43.6 25.2 10 17.3 73.6-42.5zM247.51 632.347l15.936-12.084-72.806-96.014-15.936 12.084zM121.121 632.335l72.806-96.015-15.936-12.084-72.806 96.015zM217.5 467.9h-69.1v68h69.1v-68z m-49 20h29.1v28h-29.1v-28zM171.7 474.4h20v-43.2h-20zM176.8 451.9h32v-20h-32z"  horiz-adv-x="1024" />

    
    <glyph glyph-name="dwggeshi" unicode="&#59435;" d="M982.08 619.648l-50.112 50.048c-0.768 0.832-1.408 1.6-2.304 2.432L762.688 838.784 760.32 840.96l-50.112 50.048a19.84 19.84 0 0 1-12.16 4.992H282.496c-58.112 0-105.408-47.168-105.408-105.216v-465.472h82.496V790.784c0 12.416 10.496 22.848 22.912 22.848h364.352V661.76c0-57.984 47.232-105.152 105.344-105.152h152.384v-579.52a23.232 23.232 0 0 0-22.912-22.848H282.496a23.232 23.232 0 0 0-22.912 22.848v57.856H177.088v-57.856c0-57.984 47.296-105.088 105.408-105.088h599.168c58.112 0 105.344 47.104 105.344 105.152V607.616a18.752 18.752 0 0 1-4.928 12.032z m-124.544 19.264h-105.344a23.232 23.232 0 0 0-22.912 22.848V766.848c0 3.904 2.24 4.8 4.992 2.048l125.312-125.056c2.816-2.688 1.856-4.928-2.048-4.928zM703.552 89.408V270.016a27.52 27.52 0 0 1-27.52 27.456H64.384a27.52 27.52 0 0 1-27.52-27.456v-180.544c0-15.04 12.352-27.456 27.52-27.456h611.648a27.52 27.52 0 0 1 27.52 27.392z m-470.656 36.224c-15.232-14.336-34.88-21.504-58.944-21.504h-52.672V257.344h52.928c54.4 0 81.536-24.896 81.536-74.688 0-23.68-7.616-42.688-22.848-57.024z m206.08-21.504h-36.288l-26.112 99.904a91.008 91.008 0 0 0-2.496 16.96h-0.384c-0.64-6.848-1.6-12.48-2.752-16.96l-26.688-99.904H306.56l-40.832 153.216h35.776l22.72-103.808c0.96-4.544 1.664-10.304 2.048-17.28h0.768c0.32 5.44 1.344 11.328 3.072 17.728l28.48 103.296h34.688l25.92-104.64c1.088-4.096 1.856-9.536 2.496-16.192h0.512c0.256 5.696 1.024 11.328 2.304 16.768l22.272 104.064h33.152l-40.96-153.152z m184.96 10.304c-14.912-8.64-33.344-12.992-55.104-12.992-24.448 0-43.648 6.848-57.728 20.608-14.144 13.696-21.184 32.448-21.184 56.256 0 24.128 7.808 43.776 23.296 58.88s35.968 22.656 61.312 22.656c16.384 0 30.656-2.304 42.816-6.912v-30.912a84.928 84.928 0 0 1-43.52 10.368 47.36 47.36 0 0 1-35.904-14.464c-9.152-9.6-13.76-22.336-13.76-38.08 0-16 4.16-28.48 12.416-37.504 8.256-8.96 19.584-13.44 33.856-13.44a46.464 46.464 0 0 1 20.8 4.032v31.424h-30.848v26.176h63.552v-76.096zM207.616 217.792a51.072 51.072 0 0 1-36.032 12.8h-17.664v-99.84h17.792c15.488 0 27.648 4.608 36.48 13.888 8.832 9.216 13.248 21.76 13.248 37.504 0 15.232-4.608 27.136-13.824 35.648zM442.368 750.528v-112.512h-30.336a20.096 20.096 0 0 1-20.032-20.032v-30.272H279.552v-24.448h112.512v-30.272c0-11.008 9.024-20.032 20.032-20.032h30.272v-112.512h24.448V513.024h30.272a20.096 20.096 0 0 1 20.032 20.032v30.272h112.512v24.448H517.056v30.272a20.096 20.096 0 0 1-20.032 20.032h-30.272V750.528h-24.384z m-25.856-136.96h25.856v-25.856h-25.856v25.856z m0-76.096v25.856h25.856v-25.856h-25.856z m76.096 0h-25.856v25.856h25.856v-25.856z m0 76.096v-25.856h-25.856v25.856h25.856z"  horiz-adv-x="1024" />

    
    <glyph glyph-name="luyouqi" unicode="&#58883;" d="M878.942 339.9h-725.014c-43.586 0-79.328-35.742-79.328-79.328v-161.614c0-43.586 35.742-79.328 79.328-79.328h725.014c43.586 0 79.328 35.742 79.328 79.328v161.742c0 43.586-35.742 79.2-79.328 79.2zM239.3 137.658c-24.042 0-43.586 18.9-43.586 42.3s19.542 42.3 43.586 42.3 43.586-18.9 43.586-42.3c0.128-23.4-19.414-42.3-43.586-42.3zM380.214 137.658c-24.042 0-43.586 18.9-43.586 42.3s19.542 42.3 43.586 42.3 43.586-18.9 43.586-42.3-19.414-42.3-43.586-42.3zM823.142 554.742c1.286 2.828 1.928 5.914 1.928 9.258v218.828c0 12.472-10.158 22.628-22.628 22.628s-22.628-10.158-22.628-22.628v-211.5h-551.314l-114.428-194.658h813.858l-104.786 178.072z"  horiz-adv-x="1024" />

    
    <glyph glyph-name="anzhuangshigong-xianxing" unicode="&#59606;" d="M512 832C264.8 832 64 631.2 64 384s200.8-448 448-448 448 200.8 448 448S759.2 832 512 832zM128 384c0 212 172 384 384 384s384-172 384-384c0-83.2-26.4-159.2-71.2-222.4L620.8 365.6c34.4 71.2 21.6 159.2-37.6 218.4-52.8 52.8-128 68-193.6 47.2-2.4-12-3.2-15.2-5.6-27.2l64-60v-56l-40-40h-56l-60 64c-12-2.4-15.2-3.2-27.2-5.6C244 440 260 364.8 312 312c59.2-59.2 147.2-71.2 218.4-37.6l204-204c-62.4-44.8-139.2-71.2-222.4-71.2C300 0 128 172 128 384z"  horiz-adv-x="1024" />

    
    <glyph glyph-name="shaixuanguolv" unicode="&#59607;" d="M874.4 676.8L576 319.2v-208c0-4.8-2.4-9.6-5.6-12.8l-96-78.4c-10.4-8.8-26.4-0.8-26.4 12.8V319.2L149.6 676.8c-8.8 10.4-1.6 26.4 12 26.4h700c13.6 0 21.6-16 12.8-26.4z"  horiz-adv-x="1024" />

    
    <glyph glyph-name="anzhuangshigong" unicode="&#59608;" d="M530.4 275.2C459.2 240.8 371.2 252.8 312 312c-52.8 52.8-68 128-47.2 193.6 12 2.4 15.2 3.2 27.2 5.6l60-64h56l40 40v56l-64 60c2.4 12 3.2 15.2 5.6 27.2C456 652 531.2 636 584 584c59.2-59.2 71.2-147.2 37.6-218.4l249.6-249.6c56 74.4 88.8 168 88.8 268 0 247.2-200.8 448-448 448S64 631.2 64 384s200.8-448 448-448c100.8 0 193.6 32.8 268 88.8L530.4 275.2z"  horiz-adv-x="1024" />

    
    <glyph glyph-name="tiaoxingtu-xianxing" unicode="&#59652;" d="M128 768h64v-768h-64zM320 384h64v-256h-64zM576 448h64v-320h-64zM704 640h64v-512h-64zM448 512h64v-384h-64zM128 0v64h768v-64z"  horiz-adv-x="1024" />

    
    <glyph glyph-name="zhexiantu-xianxing" unicode="&#59654;" d="M192 64V768h-64v-768h768v64zM605.6 256l-184 161.6L299.2 264l-50.4 40 164.8 206.4 184.8-163.2 248.8 296.8 48.8-40.8z"  horiz-adv-x="1024" />

    
    <glyph glyph-name="tieta" unicode="&#58885;" d="M443.1872 878.01856h178.2784l5.51936-33.7408 13.4656-82.1504h174.7712v-102.44608l-22.29248-11.22304-123.81696-62.03392 13.81376-84.73088h233.46176v-116.90496l-22.29248-11.05408-175.8464-88.32 42.58304-260.52096h147.24096v-134.912H112.94208v134.912h156.76928l42.3168 259.21536-181.78048 89.35936-22.64576 11.09504V501.68832h239.97952l13.58848 82.93888-129.75104 63.72864-22.6048 11.06944V762.12736h181.29408l13.37856 82.1504 5.59104 33.7408h34.10944z m199.78752-629.38112l-193.27488-87.168h207.40096l-14.12608 87.168z m23.0912-141.54752l-233.27744-82.2016h246.74304l-13.4656 82.2016z m-312.58624-67.59936l231.97696 81.84832H366.85824l-13.37856-81.84832z m21.59104 132.47488l214.40512 96.6144H390.85056l-15.77984-96.6144z m278.49216 509.6704l2.00704-12.33408 24.704 12.33408h-26.71104z m-278.92736-14.33088l2.35008 14.336h-31.6416l29.29152-14.336z m96.83968 94.8224h87.56736l-5.77536 35.45088H477.19424l-5.71904-35.45088z m118.73792-190.6688h-149.9136l-11.32032-69.76512h172.60032l-11.3664 69.76512z m-17.9712 110.17728h-113.92l-4.864-29.7216h123.60704l-4.82304 29.7216z m123.89376-260.39296l8.576-52.89472 105.58464 52.89472h-114.16064zM325.5808 366.8224l8.92416 54.4256H214.75328l110.82752-54.4256z m289.19808 54.42048H415.8208l-11.8016-72.07936h222.5152l-11.75552 72.07936z"  horiz-adv-x="1024" />

    
    <glyph glyph-name="geshi_wendangtxt" unicode="&#59064;" d="M766.1 838.8c-0.8 0.8-1.6 1.4-2.4 2.2l-50 50c-2.8 2.8-8.2 5-12.1 5H286c-58.1 0-105.4-47.2-105.4-105.1v-465.5h82.5V790.9c0 12.4 10.5 22.9 22.9 22.9h364.4v-152c0-58 47.3-105.1 105.4-105.1h152.4v-579.5c0-12.4-10.5-22.9-22.9-22.9H286c-12.4 0-22.9 10.5-22.9 22.9v57.9h-82.5v-57.9c0-58 47.3-105.1 105.4-105.1h599.2c58.1 0 105.4 47.2 105.4 105.1V607.6c0 3.9-2.2 9.3-5 12l-50.2 50c-0.8 0.8-1.5 1.6-2.3 2.4l-167 166.8z m-33.2-177V766.9c0 3.9 2.2 4.8 5 2.1l125.3-125c2.8-2.8 1.8-5-2.1-5H755.8c-12.4-0.1-22.9 10.4-22.9 22.8zM292.1 772h331.5v-40H292.1zM292.1 698.4h331.5v-40H292.1zM292.1 624.8h331.5v-40H292.1zM292.1 551.2h331.5v-40H292.1zM292.1 477.6H881v-40H292.1zM292.1 404H881v-40H292.1zM679.7 297.5H68c-15.1 0-27.5-12.3-27.5-27.4v-180.6c0-15.1 12.4-27.4 27.5-27.4h611.7c15.1 0 27.5 12.3 27.5 27.4V270c0 15.1-12.4 27.5-27.5 27.5z m-380.9-68.2h-43.2v-124.9h-32.3V229.3h-43.1v26.4h118.6v-26.4z m103.5-124.9l-27.1 50.2c-1 1.8-2 5.1-3 9.9h-0.4c-0.5-2.3-1.7-5.7-3.5-10.2l-27.2-49.9h-38.6l48.5 75.7-44.3 75.6H346l22.6-46.3c1.8-3.8 3.4-7.9 4.7-12.5h0.4c1.4 4.1 3 8.4 5 13l24.9 45.8h36l-45.7-75 46.9-76.3h-38.5z m165.3 124.9h-43.2v-124.9h-32.3V229.3H449v26.4h118.6v-26.4z"  horiz-adv-x="1024" />

    
    <glyph glyph-name="geshi_wendangdoc" unicode="&#59065;" d="M766.1 838.8c-0.8 0.8-1.6 1.4-2.4 2.2l-50 50c-2.8 2.8-8.2 5-12.1 5H286c-58.1 0-105.4-47.2-105.4-105.1v-465.5h82.5V790.9c0 12.4 10.5 22.9 22.9 22.9h364.4v-152c0-58 47.3-105.1 105.4-105.1h152.4v-579.5c0-12.4-10.5-22.9-22.9-22.9H286c-12.4 0-22.9 10.5-22.9 22.9v57.9h-82.5v-57.9c0-58 47.3-105.1 105.4-105.1h599.2c58.1 0 105.4 47.2 105.4 105.1V607.6c0 3.9-2.2 9.3-5 12l-50.2 50c-0.8 0.8-1.5 1.6-2.3 2.4l-167 166.8z m-33.2-177V766.9c0 3.9 2.2 4.8 5 2.1l125.3-125c2.8-2.8 1.8-5-2.1-5H755.8c-12.4-0.1-22.9 10.4-22.9 22.8zM448.7 772h174.9v-40H448.7zM292.1 772H413v-113.6H292.1zM448.7 698.4h174.9v-40H448.7zM292.1 624.8h331.5v-40H292.1zM292.1 551.2h331.5v-40H292.1zM292.1 477.6h331.4v-40H292.1zM292.1 404h331.4v-40H292.1zM874.3 515.2L833.9 364h-35.8l-25.8 98.6c-1.4 5.3-2.2 10.9-2.4 16.7h-0.4c-0.7-6.8-1.6-12.3-2.7-16.7L740.4 364h-37.2l-40.3 151.3h35.4l22.5-102.5c1-4.5 1.7-10.2 2.1-17h0.7c0.3 5.3 1.3 11.2 3 17.5l28.1 102.1H789l25.6-103.3c1-4.1 1.9-9.4 2.4-16h0.5c0.3 5.7 1 11.2 2.2 16.6l22 102.7h32.6zM248.3 216.7c-9.1 8.4-21 12.6-35.5 12.6h-17.5v-98.5h17.6c15.3 0 27.3 4.6 36 13.7s13.1 21.5 13.1 37c-0.1 15-4.6 26.7-13.7 35.2zM679.7 297.5H68c-15.1 0-27.5-12.3-27.5-27.4v-180.6c0-15.1 12.4-27.4 27.5-27.4h611.7c15.1 0 27.5 12.3 27.5 27.4V270c0 15.1-12.4 27.5-27.5 27.5zM273.3 125.7c-15-14.2-34.4-21.2-58.2-21.2H163V255.7h52.2c53.7 0 80.6-24.6 80.6-73.7 0-23.4-7.5-42.2-22.5-56.3z m165.5-1.9c-13.7-14.7-31.7-22-53.9-22-21.7 0-39.3 7.1-52.8 21.3-13.5 14.2-20.3 32.5-20.3 54.9 0 23.7 6.9 43 20.8 57.9 13.8 14.9 32.1 22.3 54.8 22.3 21.6 0 39-7.2 52.2-21.6 13.2-14.4 19.8-32.9 19.8-55.5 0-23.5-6.9-42.6-20.6-57.3z m154.1 97.5c-10.2 6-21.8 9-34.8 9-14.8 0-26.6-4.7-35.4-14.2-8.9-9.4-13.3-21.8-13.3-37 0-14.8 4.2-26.8 12.6-35.8 8.4-9 19.8-13.6 34.1-13.6 13.5 0 25.7 3.3 36.8 9.8v-29.6c-11-5.4-25.4-8.1-43.1-8.1-22.8 0-40.9 6.8-54.2 20.5-13.4 13.6-20.1 31.8-20.1 54.5 0 23.9 7.5 43.4 22.4 58.6 14.9 15.2 34.2 22.8 57.9 22.8 14.8 0 27.1-1.9 37.1-5.8v-31.1zM386.4 230.3c-12.6 0-22.6-4.7-29.8-14.1-7.3-9.4-10.9-21.5-10.9-36.4 0-14.7 3.5-26.7 10.6-36.1 7.1-9.3 16.8-14 29.2-14 12.6 0 22.5 4.5 29.5 13.4 7 9 10.5 21 10.5 36.1 0 15.8-3.4 28.2-10.3 37.4-6.7 9.1-16.3 13.7-28.8 13.7z"  horiz-adv-x="1024" />

    
    <glyph glyph-name="geshi_wendangpdf" unicode="&#59068;" d="M766.1 838.8c-0.8 0.8-1.6 1.4-2.4 2.2l-50 50c-2.8 2.8-8.2 5-12.1 5H286c-58.1 0-105.4-47.2-105.4-105.1v-465.5h82.5V790.9c0 12.4 10.5 22.9 22.9 22.9h364.4v-152c0-58 47.3-105.1 105.4-105.1h152.4v-579.5c0-12.4-10.5-22.9-22.9-22.9H286c-12.4 0-22.9 10.5-22.9 22.9v57.9h-82.5v-57.9c0-58 47.3-105.1 105.4-105.1h599.2c58.1 0 105.4 47.2 105.4 105.1V607.6c0 3.9-2.2 9.3-5 12l-50.2 50c-0.8 0.8-1.5 1.6-2.3 2.4l-167 166.8z m-33.2-177V766.9c0 3.9 2.2 4.8 5 2.1l125.3-125c2.8-2.8 1.8-5-2.1-5H755.8c-12.4-0.1-22.9 10.4-22.9 22.8zM661.1 510.6C619.7 531.8 557.3 525 557.3 525s-20.5 20.5-38 40.2c-17.5 19.7-29.9 48.2-29.9 48.2 42.4 121.6 13.3 145.2-11.7 142.4-19.7-2.2-39.4-25.2-37.3-58.1 2.2-32.9 27.4-90.9 27.4-90.9s-12.1-34-25.2-60-38.2-56.7-38.2-56.7-62.3-12.6-91-45.5c-33.4-38.1-4.4-70.1 32.9-58.1 37.3 12.1 76.1 86.6 76.1 86.6s36.7 15 68.3 19.9c33.4 5.2 53.6 5.7 53.6 5.7s33.2-57.5 86.9-69.5c53.5-11.9 75.5 58.2 29.9 81.4zM361 423.3c-10.1-11.8-26.3-20.3-34-15.9-4.6 2.6-2.5 14.2 12.3 28.2s47.4 23.6 47.4 23.6-17.5-26.4-25.7-35.9z m100.5 278.5c-1.4 30 17.6 30.7 17.6 30.7 17.9-4.8 10.7-38.9 10.3-50.4-0.4-11.5-12.5-40.9-12.5-40.9s-14.5 40-15.4 60.6z m23-187.6c-12.6-2.6-45.2-10.7-45.2-10.7s10.8 12.6 23 34.8c12.2 22.2 17.9 43.8 17.9 43.8s17.1-28.1 23.6-36.7c6.4-8.5 22-26 22-26-7.4-0.4-26.8-2.2-41.3-5.2z m174.3-48.4c-4-11.7-23-14.2-34-5.8-12.2 9.4-46.3 41.9-46.3 41.9s17.4-0.8 34.6-2.4c17.3-1.7 52.8-13 45.7-33.7zM237.1 230.7h-14.3v-48.8h14c18.9 0 28.4 8.2 28.4 24.7 0.1 16.1-9.3 24.1-28.1 24.1zM407.3 216.7c-9.1 8.4-21 12.6-35.5 12.6h-17.5v-98.5h17.6c15.3 0 27.3 4.6 36 13.7s13.1 21.5 13.1 37c0 15-4.5 26.7-13.7 35.2zM679.7 297.5H68c-15.1 0-27.5-12.3-27.5-27.4v-180.6c0-15.1 12.4-27.4 27.5-27.4h611.7c15.1 0 27.5 12.3 27.5 27.4V270c0 15.1-12.4 27.5-27.5 27.5zM282.1 170.6c-11.4-9.3-25.6-13.8-42.6-13.4h-16.6v-52.7h-32.2V255.7h52.1c37.6 0 56.4-16 56.4-47.9-0.1-15.5-5.7-27.9-17.1-37.2z m150.2-44.9c-15-14.2-34.4-21.2-58.2-21.2h-52V255.7h52.2c53.7 0 80.6-24.6 80.6-73.7 0-23.4-7.5-42.2-22.6-56.3z m130 64.8v-26.4h-49.7v-59.7h-32.2V255.7h86.2v-26.4h-54v-38.9h49.7z"  horiz-adv-x="1024" />

    
    <glyph glyph-name="geshi_wendangxls" unicode="&#59070;" d="M766.1 838.8c-0.8 0.8-1.6 1.4-2.4 2.2l-50 50c-2.8 2.8-8.2 5-12.1 5H286c-58.1 0-105.4-47.2-105.4-105.1v-465.5h82.5V790.9c0 12.4 10.5 22.9 22.9 22.9h364.4v-152c0-58 47.3-105.1 105.4-105.1h152.4v-579.5c0-12.4-10.5-22.9-22.9-22.9H286c-12.4 0-22.9 10.5-22.9 22.9v57.9h-82.5v-57.9c0-58 47.3-105.1 105.4-105.1h599.2c58.1 0 105.4 47.2 105.4 105.1V607.6c0 3.9-2.2 9.3-5 12l-50.2 50c-0.8 0.8-1.5 1.6-2.3 2.4l-167 166.8z m-33.2-177V766.9c0 3.9 2.2 4.8 5 2.1l125.3-125c2.8-2.8 1.8-5-2.1-5H755.8c-12.4-0.1-22.9 10.4-22.9 22.8zM835.9 364h-38.3l-27.1 50.2c-1 1.8-2 5.1-3 9.9h-0.4c-0.5-2.3-1.7-5.7-3.5-10.2L736.3 364h-38.6l48.5 75.7-44.2 75.5h39.3l22.6-46.3c1.8-3.8 3.4-7.9 4.7-12.5h0.4c1.4 4.1 3 8.4 5 13l24.9 45.8h36l-45.7-75 46.7-76.2zM538 577v-213h-39.9V577zM602.9 668v-304H563V668zM474.4 741v-377h-39.9V741zM410.7 462v-98h-39.9v98zM347.1 616v-252h-39.9V616zM679.7 297.5H68c-15.1 0-27.5-12.3-27.5-27.4v-180.6c0-15.1 12.4-27.4 27.5-27.4h611.7c15.1 0 27.5 12.3 27.5 27.4V270c0 15.1-12.4 27.5-27.5 27.5z m-390-193.1l-27.1 50.2c-1 1.8-2 5.1-3 9.9h-0.4c-0.5-2.3-1.7-5.7-3.5-10.2l-27.2-49.9h-38.6l48.5 75.7-44.4 75.6h39.3l22.6-46.3c1.8-3.8 3.4-7.9 4.7-12.5h0.4c1.4 4.1 3 8.4 5 13l24.9 45.8h36l-45.7-75 46.9-76.3h-38.4z m145.6 0h-88.8V255.7h32.2v-124.9h56.5v-26.4z m100.1 8.8c-10.3-7.6-24.9-11.4-43.8-11.4-17.3 0-31.5 2.8-42.6 8.4v32.3c12.2-10.1 26-15.1 41.5-15.1 8.8 0 15.4 1.5 19.8 4.5s6.6 6.9 6.6 11.7c0 4.1-1.8 8-5.3 11.6-3.5 3.6-12.8 8.6-27.8 14.8-23.6 10-35.4 24.6-35.4 43.8 0 14.1 5.4 25 16.1 32.8 10.7 7.8 24.9 11.7 42.5 11.7 14.8 0 27.2-1.9 37.2-5.8v-30.3c-10.2 6.9-22 10.4-35.6 10.4-7.9 0-14.3-1.4-19-4.3-4.8-2.9-7.1-6.8-7.1-11.7 0-3.9 1.6-7.5 4.9-10.8 3.3-3.3 11.3-7.7 24.1-13.3 15-6.4 25.4-13.2 31-20.4 5.6-7.2 8.4-15.7 8.4-25.6-0.1-14.6-5.2-25.7-15.5-33.3z"  horiz-adv-x="1024" />

    
    <glyph glyph-name="geshi_tongyongwendang" unicode="&#59072;" d="M695.513 838.817c-0.781 0.779-1.565 1.442-2.353 2.183L643.031 891.019C640.273 893.771 634.879 896 630.978 896H215.393c-58.106 0-105.38-47.164-105.38-105.142v-465.521h82.471V790.858c0 12.386 10.497 22.854 22.909 22.854h364.366V661.8c0-57.977 47.273-105.144 105.38-105.144h152.377v-579.511c0-12.386-10.495-22.857-22.909-22.857H215.393c-12.413 0-22.909 10.472-22.909 22.857v57.908h-82.471v-57.908c0-57.979 47.274-105.145 105.38-105.145h599.214c58.108 0 105.381 47.166 105.381 105.145V607.639c0 3.89-2.234 9.275-4.994 12.028l-50.154 50.042c-0.771 0.813-1.461 1.62-2.282 2.439L695.513 838.817zM662.229 661.8V766.894c0 3.89 2.235 4.816 4.993 2.064L792.54 643.924c2.759-2.752 1.828-4.981-2.068-4.981H685.139c-12.413-0.001-22.91 10.468-22.91 22.857zM378.041 772.045H552.96V732H378.041v40.045zM221.476 772.045h120.898v-113.649H221.476V772.045zM686.984 105.891h120.898V-7.76H686.984V105.891zM378.041 698.441H552.96v-40.045H378.041v40.045zM221.476 624.836H552.96v-40.045H221.476v40.045zM221.476 551.232H552.96v-40.045H221.476v40.045zM221.476 477.627h586.406v-40.045H221.476v40.045zM221.476 404.023h586.406v-40.045H221.476v40.045zM221.476 328h586.406v-40.046H221.476V328zM221.476 254.395h586.406v-40.045H221.476v40.045zM221.476 179.496h586.406v-40.046H221.476v40.046zM221.476 105.891h419.931v-40.045H221.476v40.045zM221.476 30.994h419.931v-40.045H221.476v40.045zM110.013 327.999h82.471v-297.005h-82.471"  horiz-adv-x="1024" />

    
    <glyph glyph-name="geshi_shipinmp" unicode="&#59080;" d="M766.1 838.8c-0.8 0.8-1.6 1.4-2.4 2.2l-50 50c-2.8 2.8-8.2 5-12.1 5H286c-58.1 0-105.4-47.2-105.4-105.1v-465.5h82.5V790.9c0 12.4 10.5 22.9 22.9 22.9h364.4v-152c0-58 47.3-105.1 105.4-105.1h152.4v-579.5c0-12.4-10.5-22.9-22.9-22.9H286c-12.4 0-22.9 10.5-22.9 22.9v57.9h-82.5v-57.9c0-58 47.3-105.1 105.4-105.1h599.2c58.1 0 105.4 47.2 105.4 105.1V607.6c0 3.9-2.2 9.3-5 12l-50.2 50c-0.8 0.8-1.5 1.6-2.3 2.4l-167 166.8z m-33.2-177V766.9c0 3.9 2.2 4.8 5 2.1l125.3-125c2.8-2.8 1.8-5-2.1-5H755.8c-12.4-0.1-22.9 10.4-22.9 22.8zM413.3 230.7H399v-48.8h14c18.9 0 28.4 8.2 28.4 24.7 0 16.1-9.4 24.1-28.1 24.1zM549 219.4c-0.8-2.1-2.1-4.4-3.7-6.9l-34-52.3h39.8v49.6c0 4.2 0.1 9.1 0.4 14.6h-0.6c-0.5-1.4-1.1-3-1.9-5zM679.7 297.5H68c-15.1 0-27.5-12.3-27.5-27.4v-180.6c0-15.1 12.4-27.4 27.5-27.4h611.7c15.1 0 27.5 12.3 27.5 27.4V270c0 15.1-12.4 27.5-27.5 27.5zM331.4 104.4h-31.8v91.8c0 8.5 0.4 19.1 1.3 31.9h-0.8c-2-9.7-3.5-16.2-4.7-19.4l-37.3-104.3h-25.7l-37.8 103.3c-0.9 2.5-2.5 9.3-4.8 20.4h-0.9c0.8-12.7 1.3-25.4 1.3-38.2v-85.5h-29.1V255.7H208l32.6-91.4c2.7-7.6 4.6-14.6 5.6-21.3h0.7c2 8.3 4.1 15.4 6.3 21.5l32.7 91.2h45.6v-151.3z m126.8 66.2c-11.4-9.3-25.6-13.8-42.6-13.4H399v-52.7h-32.2V255.7h52.1c37.6 0 56.4-16 56.4-47.9 0-15.5-5.7-27.9-17.1-37.2z m140.1-33.2H580v-33h-28.8v33h-66.5v20.1l63.9 98.1H580V160h18.4v-22.6zM421.6 554.8l79.3 39.6c7.3 3.6 7.3 14.1 0 17.7l-79.3 39.6c-6.6 3.3-14.3-1.5-14.3-8.9v-79.3c-0.1-7.2 7.7-11.9 14.3-8.7z m164.1 167.5H327.8c-16.3 0-29.6-13.4-29.6-29.9v-178.1c0-16.5 13.2-29.9 29.6-29.9h257.9c16.3 0 29.6 13.4 29.6 29.9V692.4c0 16.5-13.2 29.9-29.6 29.9zM357.6 514.2c0-5.5-4.2-10-10-10H328c-5.5 0-10 4.2-10 10v19.6c0 5.5 4.2 10 10 10h19.6c5.5 0 10-4.2 10-10v-19.6z m0 79.3c0-5.5-4.2-10-10-10H328c-5.5 0-10 4.2-10 10v19.6c0 5.5 4.2 10 10 10h19.6c5.5 0 10-4.2 10-10v-19.6z m0 79.3c0-5.5-4.2-10-10-10H328c-5.5 0-10 4.2-10 10v19.6c0 5.5 4.2 10 10 10h19.6c5.5 0 10-4.2 10-10v-19.6zM536 504.2H377.5V702.4H536v-198.2z m59.5 10c0-5.5-4.2-10-10-10h-19.6c-5.5 0-10 4.2-10 10v19.6c0 5.5 4.2 10 10 10h19.6c5.5 0 10-4.2 10-10v-19.6z m0 79.3c0-5.5-4.2-10-10-10h-19.6c-5.5 0-10 4.2-10 10v19.6c0 5.5 4.2 10 10 10h19.6c5.5 0 10-4.2 10-10v-19.6z m0 79.3c0-5.5-4.2-10-10-10h-19.6c-5.5 0-10 4.2-10 10v19.6c0 5.5 4.2 10 10 10h19.6c5.5 0 10-4.2 10-10v-19.6z"  horiz-adv-x="1024" />

    
    <glyph glyph-name="geshi_tupianjpg" unicode="&#59084;" d="M766.1 838.8c-0.8 0.8-1.6 1.4-2.4 2.2l-50 50c-2.8 2.8-8.2 5-12.1 5H286c-58.1 0-105.4-47.2-105.4-105.1v-465.5h82.5V790.9c0 12.4 10.5 22.9 22.9 22.9h364.4v-152c0-58 47.3-105.1 105.4-105.1h152.4v-579.5c0-12.4-10.5-22.9-22.9-22.9H286c-12.4 0-22.9 10.5-22.9 22.9v57.9h-82.5v-57.9c0-58 47.3-105.1 105.4-105.1h599.2c58.1 0 105.4 47.2 105.4 105.1V607.6c0 3.9-2.2 9.3-5 12l-50.2 50c-0.8 0.8-1.5 1.6-2.3 2.4l-167 166.8z m-33.2-177V766.9c0 3.9 2.2 4.8 5 2.1l125.3-125c2.8-2.8 1.8-5-2.1-5H755.8c-12.4-0.1-22.9 10.4-22.9 22.8zM342.2 230.7H328v-48.8h14c18.9 0 28.4 8.2 28.4 24.7-0.1 16.1-9.4 24.1-28.2 24.1zM679.7 297.5H68c-15.1 0-27.5-12.3-27.5-27.4v-180.6c0-15.1 12.4-27.4 27.5-27.4h611.7c15.1 0 27.5 12.3 27.5 27.4V270c0 15.1-12.4 27.5-27.5 27.5zM262.2 163.8c0-20-4.6-35.3-13.8-46-9.2-10.7-22.4-16-39.6-16-7.6 0-14.7 1.3-21.2 3.9v30.4c5.6-4.2 12-6.3 19.1-6.3 15.5 0 23.2 11.8 23.2 35.3v90.7h32.2v-92z m125 6.8c-11.4-9.3-25.6-13.8-42.6-13.4H328v-52.7h-32.2V255.7h52.1c37.6 0 56.4-16 56.4-47.9-0.1-15.5-5.8-27.9-17.1-37.2z m163.7-56c-14.8-8.5-32.9-12.8-54.5-12.8-24.1 0-43.1 6.8-57 20.3-13.9 13.5-20.9 32.1-20.9 55.6 0 23.8 7.7 43.2 23 58.2 15.3 14.9 35.5 22.4 60.6 22.4 16.1 0 30.2-2.3 42.3-6.8v-30.6c-11.7 6.8-26 10.3-43 10.3-14.6 0-26.4-4.8-35.4-14.3s-13.6-22-13.6-37.6c0-15.8 4.1-28.2 12.3-37 8.2-8.9 19.3-13.3 33.4-13.3 8.4 0 15.3 1.3 20.6 3.9V164h-30.6v25.9h62.8v-75.3zM592.6 727.5H323.8c-13.5 0-24.4-10.9-24.4-24.4v-244.4c0-13.5 10.9-24.4 24.4-24.4h268.8c13.5 0 24.4 10.9 24.4 24.4V703.1c0 13.5-10.9 24.4-24.4 24.4z m0-268.8H323.8V703.1h268.8v-244.4zM384.9 617.6c13.5 0 24.4 10.9 24.4 24.4 0 13.5-10.9 24.4-24.4 24.4-13.5 0-24.4-10.9-24.4-24.4-0.1-13.5 10.9-24.4 24.4-24.4zM507.1 630.8l-72.4-109.7-37.5 56-61.2-93.9h244.4l-73.3 147.6z"  horiz-adv-x="1024" />

    
    <glyph glyph-name="geshi_tupianpng" unicode="&#59086;" d="M766.1 838.8c-0.8 0.8-1.6 1.4-2.4 2.2l-50 50c-2.8 2.8-8.2 5-12.1 5H286c-58.1 0-105.4-47.2-105.4-105.1v-465.5h82.5V790.9c0 12.4 10.5 22.9 22.9 22.9h364.4v-152c0-58 47.3-105.1 105.4-105.1h152.4v-579.5c0-12.4-10.5-22.9-22.9-22.9H286c-12.4 0-22.9 10.5-22.9 22.9v57.9h-82.5v-57.9c0-58 47.3-105.1 105.4-105.1h599.2c58.1 0 105.4 47.2 105.4 105.1V607.6c0 3.9-2.2 9.3-5 12l-50.2 50c-0.8 0.8-1.5 1.6-2.3 2.4l-167 166.8z m-33.2-177V766.9c0 3.9 2.2 4.8 5 2.1l125.3-125c2.8-2.8 1.8-5-2.1-5H755.8c-12.4-0.1-22.9 10.4-22.9 22.8zM210.8 230.7h-14.3v-48.8h14c18.9 0 28.4 8.2 28.4 24.7 0 16.1-9.4 24.1-28.1 24.1zM679.7 297.5H68c-15.1 0-27.5-12.3-27.5-27.4v-180.6c0-15.1 12.4-27.4 27.5-27.4h611.7c15.1 0 27.5 12.3 27.5 27.4V270c0 15.1-12.4 27.5-27.5 27.5z m-424-126.9c-11.4-9.3-25.6-13.8-42.6-13.4h-16.6v-52.7h-32.2V255.7h52.1c37.6 0 56.4-16 56.4-47.9 0-15.5-5.7-27.9-17.1-37.2z m141.5-66.2l-64.1 97.9c-3.3 5.1-5.7 9.2-7.2 12.3h-0.5c0.6-5.2 0.9-13.2 0.9-24.1v-86h-30.6V255.7h35.2l61.7-95.1c4.1-6.3 6.6-10.3 7.5-12h0.5c-0.7 3.6-1 10.6-1 20.9v86.2h30.6v-151.3h-33z m191.1 10.2c-14.8-8.5-32.9-12.8-54.5-12.8-24.1 0-43.1 6.8-57 20.3-13.9 13.5-20.9 32.1-20.9 55.6 0 23.8 7.7 43.2 23 58.2 15.3 14.9 35.5 22.4 60.6 22.4 16.1 0 30.2-2.3 42.3-6.8v-30.6c-11.7 6.8-26 10.3-43 10.3-14.6 0-26.4-4.8-35.4-14.3s-13.6-22-13.6-37.6c0-15.8 4.1-28.2 12.3-37 8.2-8.9 19.3-13.3 33.4-13.3 8.4 0 15.3 1.3 20.6 3.9V164h-30.6v25.9h62.8v-75.3zM592.6 727.5H323.8c-13.5 0-24.4-10.9-24.4-24.4v-244.4c0-13.5 10.9-24.4 24.4-24.4h268.8c13.5 0 24.4 10.9 24.4 24.4V703.1c0 13.5-10.9 24.4-24.4 24.4z m0-268.8H323.8V703.1h268.8v-244.4zM384.9 617.6c13.5 0 24.4 10.9 24.4 24.4 0 13.5-10.9 24.4-24.4 24.4-13.5 0-24.4-10.9-24.4-24.4-0.1-13.5 10.9-24.4 24.4-24.4zM507.1 630.8l-72.4-109.7-37.5 56-61.2-93.9h244.4l-73.3 147.6z"  horiz-adv-x="1024" />

    
    <glyph glyph-name="guangzhaochuanganqi" unicode="&#58936;" d="M500.736 594.944c-124.416 0-225.792-101.376-225.792-225.792 0-124.416 101.376-225.792 225.792-225.792s225.792 101.376 225.792 225.792C726.528 493.568 625.152 594.944 500.736 594.944zM500.736 196.096c-95.232 0-172.544 77.312-172.544 172.544 0 95.232 77.312 172.544 172.544 172.544s172.544-77.312 172.544-172.544C673.28 273.92 595.968 196.096 500.736 196.096zM503.296 710.144c-14.848 0-26.624-11.776-26.624-26.624s11.776-26.624 26.624-26.624c153.088 0 278.016-124.416 278.016-278.016 0-14.848 11.776-26.624 26.624-26.624 14.848 0 26.624 11.776 26.624 26.624C834.048 561.664 685.568 710.144 503.296 710.144zM503.296 812.544c-14.848 0-26.624-11.776-26.624-26.624s11.776-26.624 26.624-26.624c209.92 0 380.416-170.496 380.416-380.416 0-14.848 11.776-26.624 26.624-26.624s26.624 11.776 26.624 26.624C936.96 617.984 742.4 812.544 503.296 812.544zM283.136 550.4c5.12-5.12 12.288-7.68 18.944-7.68 6.656 0 13.312 2.56 18.944 7.68 10.24 10.24 10.752 27.136 0 37.376l-72.192 72.704c-10.24 10.24-27.136 10.752-37.376 0s-10.752-27.136 0-37.376L283.136 550.4zM717.312 186.88c-10.24 10.24-27.136 10.752-37.376 0-10.24-10.24-10.752-27.136 0-37.376l72.192-72.704c5.12-5.12 12.288-7.68 18.944-7.68 6.656 0 13.312 2.56 18.944 7.68 10.24 10.24 10.752 27.136 0 37.376L717.312 186.88zM279.552 187.904l-72.704-72.192c-10.24-10.24-10.752-27.136 0-37.376 5.12-5.12 12.288-7.68 18.944-7.68 6.656 0 13.312 2.56 18.944 7.68l72.704 72.192c10.24 10.24 10.752 27.136 0 37.376C307.2 198.144 290.304 198.144 279.552 187.904zM496.64 111.104C496.64 111.104 496.64 111.104 496.64 111.104c-14.848 0-26.624-11.776-26.624-26.624l-0.512-102.4c0-14.848 11.776-26.624 26.624-26.624 0 0 0 0 0 0 14.848 0 26.624 11.776 26.624 26.624l0.512 102.4C523.264 99.328 511.488 111.104 496.64 111.104zM216.064 341.504c14.848 0 26.624 11.776 26.624 26.624 0 14.848-11.776 26.624-26.624 26.624l-102.4 0.512c0 0 0 0 0 0-14.848 0-26.624-11.776-26.624-26.624 0-14.848 11.776-26.624 26.624-26.624L216.064 341.504C216.064 341.504 216.064 341.504 216.064 341.504z"  horiz-adv-x="1024" />

    
    <glyph glyph-name="building" unicode="&#58908;" d="M934.864 57.588h-43.059v673.966c0 12.207-9.544 21.973-21.085 21.973h-327.051c-11.652 0-21.085-9.877-21.085-21.973v-673.966h-21.751v436.918c0 12.207-9.433 21.973-21.085 21.973h-327.052c-11.652 0-21.085-9.877-21.085-21.973v-268.787l72.468 75.353c7.768 8.212 20.864 8.546 29.076 0.777 0.333-0.222 0.555-0.555 0.777-0.777 8.212-8.656 8.212-22.306 0-31.074l-102.321-106.316v-106.094h-42.282c-11.652 0-21.085-9.877-21.085-21.863 0-12.207 9.433-21.973 21.085-21.973h845.536c11.652 0 21.085 9.877 21.085 21.973 0.111 12.208-9.322 21.863-21.086 21.863zM261.010 119.735l-59.816-62.147h-59.707l89.669 93.11c7.768 8.212 20.864 8.546 29.076 0.777 0.333-0.222 0.555-0.555 0.777-0.777 8.325-8.656 8.325-22.306 0.001-30.962zM278.211 389.854h-49.385c-11.652 0-21.085 9.877-21.085 21.973s9.433 21.973 21.085 21.973h49.385c11.652 0 21.085-9.877 21.085-21.973s-9.544-21.973-21.085-21.973zM403.061 91.99l-32.961-34.292h-59.816l63.035 65.366c7.768 8.212 20.864 8.546 29.076 0.777 0.333-0.222 0.555-0.555 0.777-0.777 8.212-8.767 8.212-22.418-0.111-31.074zM406.39 173.227h-49.385c-11.652 0-21.085 9.877-21.085 21.973 0 12.207 9.433 21.973 21.085 21.973h49.385c11.652 0 21.085-9.877 21.085-21.973 0.001-12.097-9.433-21.973-21.085-21.973zM406.39 281.54h-49.385c-11.652 0-21.085 9.877-21.085 21.973 0 12.208 9.433 21.973 21.085 21.973h49.385c11.652 0 21.085-9.877 21.085-21.973s-9.433-21.973-21.085-21.973zM406.39 389.854h-49.385c-11.652 0-21.085 9.877-21.085 21.973s9.433 21.973 21.085 21.973h49.385c11.652 0 21.085-9.877 21.085-21.973s-9.433-21.973-21.085-21.973zM667.742 173.227h-49.385c-11.652 0-21.085 9.877-21.085 21.973 0 12.207 9.433 21.973 21.085 21.973h49.385c11.652 0 21.085-9.877 21.085-21.973s-9.433-21.973-21.085-21.973zM667.742 281.54h-49.385c-11.652 0-21.085 9.877-21.085 21.973 0 12.208 9.433 21.973 21.085 21.973h49.385c11.652 0 21.085-9.877 21.085-21.973s-9.433-21.973-21.085-21.973zM667.742 389.854h-49.385c-11.652 0-21.085 9.877-21.085 21.973s9.433 21.973 21.085 21.973h49.385c11.652 0 21.085-9.877 21.085-21.973s-9.433-21.973-21.085-21.973zM667.742 498.168h-49.385c-11.652 0-21.085 9.877-21.085 21.973 0 12.207 9.433 21.973 21.085 21.973h49.385c11.652 0 21.085-9.877 21.085-21.973s-9.433-21.973-21.085-21.973zM667.742 606.482h-49.385c-11.652 0-21.085 9.877-21.085 21.973s9.433 21.973 21.085 21.973h49.385c11.652 0 21.085-9.877 21.085-21.973s-9.433-21.973-21.085-21.973zM796.032 173.227h-49.385c-11.652 0-21.085 9.877-21.085 21.973 0 12.207 9.433 21.973 21.085 21.973h49.385c11.652 0 21.085-9.877 21.085-21.973s-9.433-21.973-21.085-21.973zM796.032 281.54h-49.385c-11.652 0-21.085 9.877-21.085 21.973 0 12.208 9.433 21.973 21.085 21.973h49.385c11.652 0 21.085-9.877 21.085-21.973s-9.433-21.973-21.085-21.973zM796.032 389.854h-49.385c-11.652 0-21.085 9.877-21.085 21.973s9.433 21.973 21.085 21.973h49.385c11.652 0 21.085-9.877 21.085-21.973s-9.433-21.973-21.085-21.973zM796.032 498.168h-49.385c-11.652 0-21.085 9.877-21.085 21.973 0 12.207 9.433 21.973 21.085 21.973h49.385c11.652 0 21.085-9.877 21.085-21.973s-9.433-21.973-21.085-21.973zM796.032 606.482h-49.385c-11.652 0-21.085 9.877-21.085 21.973s9.433 21.973 21.085 21.973h49.385c11.652 0 21.085-9.877 21.085-21.973s-9.433-21.973-21.085-21.973z"  horiz-adv-x="1228" />

    
    <glyph glyph-name="yanwuchuanganqi" unicode="&#58896;" d="M513-85.2c-127.2 0-246.8 49.6-336.8 139.4-90 90-139.4 209.6-139.4 336.8 0 127.2 49.6 246.8 139.4 336.8s209.6 139.4 336.8 139.4c127.2 0 246.8-49.6 336.8-139.4 90-90 139.4-209.6 139.4-336.8 0-127.2-49.6-246.8-139.4-336.8-90-89.8-209.6-139.4-336.8-139.4z m0 932.4c-121.8 0-236.4-47.4-322.6-133.6-86.2-86.2-133.6-200.8-133.6-322.6s47.4-236.4 133.6-322.6c86.2-86.2 200.8-133.6 322.6-133.6s236.4 47.4 322.6 133.6c86.2 86.2 133.6 200.8 133.6 322.6s-47.4 236.4-133.6 322.6c-86.2 86.2-200.8 133.6-322.6 133.6zM513 47.2c-189.6 0-343.8 154.2-343.8 343.8S323.4 734.8 513 734.8s343.8-154.2 343.8-343.8-154.2-343.8-343.8-343.8z m0 667.6c-178.6 0-323.8-145.2-323.8-323.8 0-178.6 145.2-323.8 323.8-323.8 178.6 0 323.8 145.2 323.8 323.8 0 178.6-145.2 323.8-323.8 323.8zM179.2 401h667.6v-20H179.2zM193 306.2h640v-20h-640zM241 211.2h544v-20h-544zM322.2 127.2h381.6v-20H322.2zM503 391h20v-333.8h-20zM513 496.6c-32.4 0-58.6 26.2-58.6 58.6 0 32.4 26.2 58.6 58.6 58.6 32.4 0 58.6-26.2 58.6-58.6 0-32.4-26.2-58.6-58.6-58.6z m0 97.2c-21.2 0-38.6-17.4-38.6-38.6s17.4-38.6 38.6-38.6c21.2 0 38.6 17.4 38.6 38.6s-17.4 38.6-38.6 38.6z"  horiz-adv-x="1024" />

    
    <glyph glyph-name="shizheng" unicode="&#59082;" d="M904.314619 627.915265H657.467581h-0.224104V739.892593c0 32.871665-20.747533 59.541071-52.662407 59.541071h-477.904461c-31.91385 0-59.653635-26.669406-59.653635-59.541071v-711.838398c0-32.871665 27.740808-59.485813 59.653635-59.485812h477.905484c10.486842 0 19.168572 3.608178 26.951839 8.682753 8.004301-4.058432 16.689101-6.878664 25.934672-6.878665h246.847038c31.914874 0 52.662407 26.670429 52.662407 59.542095V568.486758c-0.001023 32.81436-20.74958 59.428507-52.66343 59.428507zM599.507518 576.549388c-0.337691-2.761903-1.690502-5.243421-1.690502-8.06263v-538.573215c0-1.296529 0.675382-2.368954 0.788969-3.608178l-473.847052 1.747807 1.917676 713.64351H599.507518v-165.147294z m299.732525-546.635845c0-0.676405 0-1.24127-0.11154-1.748831l-241.884003 1.748831V506.635061l0.224104 63.543222h241.659899c0-0.508583 0.11154-1.071402 0.11154-1.691525v-538.573215zM216.89026 622.163261h112.766297v-56.834426H216.89026zM393.820925 622.163261h112.766297v-56.834426H393.820925zM217.791793 266.667711h112.766297v-56.835449H217.791793zM393.820925 444.443627h112.766297v-56.833403H393.820925zM394.609894 266.667711h112.766297v-56.835449H394.609894zM216.89026 444.443627h112.766297v-56.833403H216.89026zM721.408869 267.625526h112.765273v-56.834426H721.408869zM720.61683 445.34516H833.38415v-56.833403H720.61683z"  horiz-adv-x="1024" />

    
    </font>
</defs>
</svg>
